Loading...
Error

Скачать Две стрелы. Детектив каменного века (Алла Сурикова) [1989, сатира, SATRip-AVC] торрент без регистрации

Статистика раздачи
Размер:  2,06 GB   |    Скачан:  49 раз
Сидов:  1  [  0 KB/s  ]  
 
 
 
Автор Сообщение

Marsianka

[] 

Две стрелы. Детектив каменного века


Страна: СССР
Жанр: сатира
Год выпуска: 1989
Продолжительность: 01:28:11
Перевод: Не требуется
Режиссер: Алла Сурикова
В ролях: Армен Джигарханян, Александр Кузнецов, Николай Караченцов, Леонид Ярмольник, Наталья Гундарева,
Сергей Шакуров, Ольга Кабо, Станислав Садальский, Александр Иванов (II), Олег Анофриев

Описание: Действие фильма происходит в доисторические времена. С одной стороны - дикая природа, люди-варвары, еще не вкусившие плодов цивилизации.
А с другой - борьба за власть, наивность художника, верящего в людскую справедливость, и жестокость воинов, готовых раздавить любое проявление независимости...



Кодек: х264
Качество: SATRip-AVC
Видео: MPEG-4 AVC, 700х574@746x574, 25 fps, 3150 Кбит/с
Аудио: АС3, 2h, 192 Кбит/с

x264 [info]: frame I:740 Avg QP:16.71 size: 75699
x264 [info]: frame P:29375 Avg QP:19.06 size: 35528
x264 [info]: frame B:102158 Avg QP:21.05 size: 9626

Общее
Уникальный идентификатор : 177428577041154453230533047696735683191 (0x857B803E59223406A80FA50FEB3D4277)
Полное имя : I:сссрДве стрелы. Детектив каменного века 1989_SATRip-AVC_KORSAR.mkv
Формат : Matroska
Версия формата : Version 2
Размер файла : 2,06 Гбайт
Продолжительность : 1 ч. 28 м.
Общий поток : 3343 Кбит/сек
Дата кодирования : UTC 2018-04-15 20:40:14
Программа кодирования : mkvmerge v5.8.0 ('No Sleep / Pillow') built on Sep 2 2012 15:37:04
Библиотека кодирования : libebml v1.2.3 + libmatroska v1.3.0

Видео
Идентификатор : 1
Формат : AVC
Формат/Информация : Advanced Video Codec
Профиль формата : High@L4.1
Настройки формата : CABAC / 14 Ref Frames
Параметр CABAC формата : Да
Параметр RefFrames формата : 14 кадров
Идентификатор кодека : V_MPEG4/ISO/AVC
Продолжительность : 1 ч. 28 м.
Битрейт : 3150 Кбит/сек
Ширина : 700 пикселей
Высота : 574 пикселя
Соотношение сторон : 4:3
Соотношение сторон в оригинале : 4:3
Режим частоты кадров : Постоянный
Частота кадров : 25,000 кадров/сек
Цветовое пространство : YUV
Субдискретизация насыщенности : 4:2:0
Битовая глубина : 8 бит
Тип развёртки : Прогрессивная
Бит/(Пиксели*Кадры) : 0.314
Размер потока : 1,90 Гбайт (92%)
Библиотека кодирования : x264 core 152 r2851kMod ba24899
Настройки программы : cabac=1 / ref=14 / deblock=1:-2:-2 / analyse=0x3:0x113 / me=umh / subme=11 / psy=1 / fade_compensate=0.00 / psy_rd=0.90:0.05 / mixed_ref=1 / me_range=48 / chroma_me=1 / trellis=2 / 8x8dct=1 / cqm=0 / deadzone=21,11 / fast_pskip=0 / chroma_qp_offset=-3 / threads=12 / lookahead_threads=2 / sliced_threads=0 / nr=0 / decimate=0 / interlaced=0 / bluray_compat=0 / constrained_intra=0 / bframes=8 / b_pyramid=2 / b_adapt=2 / b_bias=0 / direct=3 / weightb=1 / open_gop=0 / weightp=2 / keyint=250 / keyint_min=25 / scenecut=40 / intra_refresh=0 / rc_lookahead=40 / rc=2pass / mbtree=0 / bitrate=3150 / ratetol=1.0 / qcomp=0.60 / qpmin=0 / qpmax=39 / qpstep=4 / cplxblur=20.0 / qblur=0.5 / vbv_maxrate=50000 / vbv_bufsize=62500 / nal_hrd=none / filler=0 / ip_ratio=1.25 / pb_ratio=1.30 / aq=1:0.90
Язык : English
Default : Да
Forced : Нет
Цветовой диапазон : Limited
Основные цвета : BT.601 PAL
Характеристики трансфера : BT.470 System B, BT.470 System G
Коэффициенты матрицы : BT.470 System B, BT.470 System G

Аудио
Идентификатор : 2
Формат : AC-3
Формат/Информация : Audio Coding 3
Параметр Endianness формата : Big
Идентификатор кодека : A_AC3
Продолжительность : 1 ч. 28 м.
Вид битрейта : Постоянный
Битрейт : 192 Кбит/сек
Каналы : 2 канала
Расположение каналов : Front: L R
Частота : 48,0 КГц
Частота кадров : 31,250 кадров/сек (1536 SPF)
Битовая глубина : 16 бит
Метод сжатия : С потерями
Задержка видео : 11 мс.
Размер потока : 121 Мбайт (6%)
Язык : Russian
Default : Да
Forced : Нет



Скачать Две.стрелы.Детектив.каменного.века.(Алла.Сурикова).[1989.сатира.SATRip-AVC].torrent без регистрации
Золото ЗОЛОТАЯ РАЗДАЧА! СКАЧАННОЕ НЕ ЗАСЧИТЫВАЕТСЯ! Золото
Дата: Зарегистрирован   [ Тип: внутренний ] Как тут cкачать?
MAGNET ссылка
MAGNET ссылка


Скачать .torrent

11 KB

Статус: проверено DHT
Скачан: торрент - 49 раз, раздача полностью - 1 раз
Размер: 2,06 GB
Оценка:  - (Голосов: 0)
Поблагодарили: 0
Поделиться ссылкой на эту раздачу с друзьями:
В контактеFacebookОдноклассникиTwitterLivejournalМой МирLiveinternet
 

 
Показать сообщения:    


Вы не можете начинать темы
Вы не можете отвечать на сообщения
Вы не можете редактировать свои сообщения
Вы не можете удалять свои сообщения
Вы не можете голосовать в опросах
Вы не можете прикреплять файлы к сообщениям
Вы можете скачивать файлы