Loading...
Error

Скачать Охотники на женщин / Охотники за девушкой / The Girl Hunters (Рой Роулэнд / Roy Rowland) [1963, детектив, BDRip] [VO] (Andy Green) + [Original] Eng торрент без регистрации

Статистика раздачи
Размер:  1,45 GB   |    Скачан:  46 раз
Сидов:  1  [  0 KB/s  ]  
 
 
 
Автор Сообщение

leon030982

[] 

Охотники на женщин / Охотники за девушкой / The Girl Hunters


Страна: Великобритания
Жанр: детектив
Год выпуска: 1963
Продолжительность: 01:37:21
Перевод: Любительский (одноголосый закадровый) Andy Green
Субтитры: нет

Режиссер: Рой Роулэнд / Roy Rowland

В ролях: Микки Спиллейн, Ширли Итон, Скотт Питерс, Ллойд Нолан

Описание: После семилетнего алкогольного запоя частный детектив Майк Хаммер доставлен в полицию, с целью переговорить с Коулом - умирающим моряком, секретным агентом под прикрытием, застреленным из того же пистолета, который использовался для убийства сенатора Нэппа. Коул дает ключ к местонахождению Вельды, бывшей подруги и секретаря Майка, которая пропала без вести, и которую Майк считал мёртвой. Майк отправляется на поиски убийцы и Вельды.

Сэмпл: http://sendfile.su/1413764

Качество видео: BDRip
Формат видео: MKV
Видео: MPEG4/ISO/AVC (H.264) / 1280x546 / 2.35:1 / 23.976fps / 1 706 Kbps
Аудио 1: AC-3 / 48.0 KHz / 192 Kbps / 2 channels / Rus
Аудио 2: AC-3 / 48.0 KHz / 192 Kbps / 2 channels / Eng

Цитата:

В фильме «The Girl Hunters» Микки Спиллейн сыграл героя своих книг Майка Хаммера. Это один из редчайших случаев в истории, когда автор играет роль созданного им персонажа.
General
Unique ID : 253637696684625785219363457254606460203 (0xBED0D7F013AFCB2DB170EC545407552B)
Complete name : D:\Охотники за девушкой\The.Girl.Hunters.(1963).BDRip.mkv
Format : Matroska
Format version : Version 4 / Version 2
File size : 1.45 GiB
Duration : 1h 37mn
Overall bit rate : 2 132 Kbps
Movie name : The Girl Hunters
Encoded date : UTC 2018-04-16 20:08:48 / UTC 2017-05-15T20:26:58Z
Writing application : mkvmerge v6.6.0 ('The Edge Of The In Between') built on Dec 1 2013 17:55:00
Writing library : libebml v1.3.0 + libmatroska v1.4.1 / Lavf57.7.2

Video
ID : 1
Format : AVC
Format/Info : Advanced Video Codec
Format profile : Main@L4
Format settings, CABAC : Yes
Format settings, ReFrames : 11 frames
Codec ID : V_MPEG4/ISO/AVC
Duration : 1h 37mn
Bit rate : 1 706 Kbps
Width : 1 280 pixels
Height : 546 pixels
Display aspect ratio : 2.35:1
Frame rate mode : Constant
Frame rate : 23.976 (24000/1001) fps
Color space : YUV
Chroma subsampling : 4:2:0
Bit depth : 8 bits
Scan type : Progressive
Bits/(Pixel*Frame) : 0.102
Stream size : 1.16 GiB (80%)
Writing library : x264 core 148 r2708 86b7198
Encoding settings : cabac=1 / ref=11 / deblock=1:-1:-1 / analyse=0x1:0x131 / me=tesa / subme=11 / psy=1 / psy_rd=1.00:0.15 / mixed_ref=1 / me_range=24 / chroma_me=1 / trellis=2 / 8x8dct=0 / cqm=0 / deadzone=21,11 / fast_pskip=0 / chroma_qp_offset=-3 / threads=17 / lookahead_threads=4 / sliced_threads=0 / nr=0 / decimate=1 / interlaced=0 / bluray_compat=0 / constrained_intra=0 / bframes=16 / b_pyramid=2 / b_adapt=2 / b_bias=0 / direct=3 / weightb=1 / open_gop=0 / weightp=2 / keyint=240 / keyint_min=24 / scenecut=40 / intra_refresh=0 / rc_lookahead=60 / rc=crf / mbtree=1 / crf=21.0 / qcomp=0.60 / qpmin=0 / qpmax=69 / qpstep=4 / vbv_maxrate=20000 / vbv_bufsize=25000 / crf_max=0.0 / nal_hrd=none / filler=0 / ip_ratio=1.40 / aq=1:1.00
Default : Yes
Forced : No
Color range : Limited
Color primaries : BT.709
Transfer characteristics : BT.709
Matrix coefficients : BT.709

Audio #1
ID : 2
Format : AC-3
Format/Info : Audio Coding 3
Mode extension : CM (complete main)
Format settings, Endianness : Big
Codec ID : A_AC3
Duration : 1h 37mn
Bit rate mode : Constant
Bit rate : 192 Kbps
Channel(s) : 2 channels
Channel positions : Front: L R
Sampling rate : 48.0 KHz
Frame rate : 31.250 fps (1536 spf)
Compression mode : Lossy
Delay relative to video : -5ms
Stream size : 134 MiB (9%)
Language : Russian
Default : Yes
Forced : No

Audio #2
ID : 3
Format : AC-3
Format/Info : Audio Coding 3
Mode extension : CM (complete main)
Format settings, Endianness : Big
Codec ID : A_AC3
Duration : 1h 37mn
Bit rate mode : Constant
Bit rate : 192 Kbps
Channel(s) : 2 channels
Channel positions : Front: L R
Sampling rate : 48.0 KHz
Frame rate : 31.250 fps (1536 spf)
Compression mode : Lossy
Delay relative to video : -5ms
Stream size : 134 MiB (9%)
Language : English
Default : No
Forced : No



Скачать Охотники.на.женщин.Охотники.за.девушкой.The.Girl.Hunters.(Рой.Роулэнд.Roy.Rowland).[1963.детектив.BDRip].[VO].(Andy.Green).+.[Original].Eng.torrent без регистрации
Золото ЗОЛОТАЯ РАЗДАЧА! СКАЧАННОЕ НЕ ЗАСЧИТЫВАЕТСЯ! Золото
Дата: Зарегистрирован   [ Тип: внутренний ] Как тут cкачать?
MAGNET ссылка
MAGNET ссылка


Скачать .torrent

15 KB

Статус: проверено DHT
Скачан: торрент - 46 раз, раздача полностью - 17 раз
Размер: 1,45 GB
Оценка:  - (Голосов: 0)
Поблагодарили: 0
Поделиться ссылкой на эту раздачу с друзьями:
В контактеFacebookОдноклассникиTwitterLivejournalМой МирLiveinternet
 

 
Показать сообщения:    


Вы не можете начинать темы
Вы не можете отвечать на сообщения
Вы не можете редактировать свои сообщения
Вы не можете удалять свои сообщения
Вы не можете голосовать в опросах
Вы не можете прикреплять файлы к сообщениям
Вы можете скачивать файлы