Loading...
Error

Скачать Добровольцы (Юрий Егоров) [1958, героико-романтический, кинопоэма, DVDRip-AVC] торрент без регистрации

Статистика раздачи
Размер:  1,9 GB   |    Скачан:  58 раз
Сидов:  2  [  0 KB/s  ]  
 
 
 
Автор Сообщение

Marsianka

[] 

Добровольцы


Страна: СССР
Жанр: героико-романтический, кинопоэма
Год выпуска: 1958
Продолжительность: 01:31:05
Перевод: Не требуется
Режиссер: Юрий Егоров
В ролях: Михаил Ульянов, Петр Щербаков, Леонид Быков, Элина Быстрицкая, Людмила Крылова, Микаэла Дроздовская, Сергей Плотников, Виктор Чекмарев, Никифор Колофидин, Александр Сашин-Никольский, Нонна Мордюкова, Мария Виноградова, Павел Винник, Юрий Киреев, Юрий Горбунов, Иван Косых, Леонид Пирогов, Людмила Марченко, Иван Мочалов, Людмила Иванова, Валентин Брылеев, Светлана Харитонова, Елена Максимова, Николай Погодин, Алевтина Румянцева

Описание: Вместе с сотнями других юношей и девушек на строительство первой очереди Московского метрополитена пришли комсомольцы Николай Кайтанов, Слава Уфимцев, Леша Акишин, девчата Леля и Маша. Их объединяет романтика подвига, стремление быть всегда на самом трудном и опасном участке. Мелькают дни, наполненные увлеченной работой, ставятся первые рекорды, переживаются первые утраты. Проходят годы. Жизнь далеко разбросала друзей. Начинается Великая Отечественная война. Снова комсомольцы-добровольцы на самых опасных рубежах...



Кодек: х264
Качество: DVDRip-AVC
Видео: MPEG-4 AVC, 694х572@740x572, 25 fps, 2600 Кбит/с
Аудио: АС3, 6h, 384 Кбит/с
Субтитры: Нет
Главы: Есть

x264 [info]: frame I:730 Avg QP:16.09 size: 71338
x264 [info]: frame P:31237 Avg QP:18.72 size: 33189
x264 [info]: frame B:104678 Avg QP:20.86 size: 6568

Общее
Уникальный идентификатор : 221342438432919897283983187069047016824 (0xA68500C5894B7EE38699E5232F7A0D78)
Полное имя : I:сссрДобровольцы 1958_DVDRip-AVC_KORSAR.mkv
Формат : Matroska
Версия формата : Version 2
Размер файла : 1,90 Гбайт
Продолжительность : 1 ч. 31 м.
Общий поток : 2986 Кбит/сек
Дата кодирования : UTC 2018-04-16 20:00:02
Программа кодирования : mkvmerge v5.8.0 ('No Sleep / Pillow') built on Sep 2 2012 15:37:04
Библиотека кодирования : libebml v1.2.3 + libmatroska v1.3.0

Видео
Идентификатор : 1
Формат : AVC
Формат/Информация : Advanced Video Codec
Профиль формата : High@L4.1
Настройки формата : CABAC / 15 Ref Frames
Параметр CABAC формата : Да
Параметр RefFrames формата : 15 кадров
Идентификатор кодека : V_MPEG4/ISO/AVC
Продолжительность : 1 ч. 31 м.
Битрейт : 2600 Кбит/сек
Ширина : 694 пикселя
Высота : 572 пикселя
Соотношение сторон : 1,294
Режим частоты кадров : Постоянный
Частота кадров : 25,000 кадров/сек
Цветовое пространство : YUV
Субдискретизация насыщенности : 4:2:0
Битовая глубина : 8 бит
Тип развёртки : Прогрессивная
Бит/(Пиксели*Кадры) : 0.262
Размер потока : 1,62 Гбайт (85%)
Библиотека кодирования : x264 core 152 r2851kMod ba24899
Настройки программы : cabac=1 / ref=15 / deblock=1:-2:-2 / analyse=0x3:0x113 / me=umh / subme=11 / psy=1 / fade_compensate=0.00 / psy_rd=0.80:0.03 / mixed_ref=1 / me_range=48 / chroma_me=1 / trellis=2 / 8x8dct=1 / cqm=0 / deadzone=21,11 / fast_pskip=0 / chroma_qp_offset=-3 / threads=12 / lookahead_threads=2 / sliced_threads=0 / nr=0 / decimate=0 / interlaced=0 / bluray_compat=0 / constrained_intra=0 / bframes=9 / b_pyramid=2 / b_adapt=2 / b_bias=0 / direct=3 / weightb=1 / open_gop=0 / weightp=2 / keyint=250 / keyint_min=25 / scenecut=40 / intra_refresh=0 / rc_lookahead=40 / rc=2pass / mbtree=0 / bitrate=2600 / ratetol=1.0 / qcomp=0.60 / qpmin=0 / qpmax=39 / qpstep=4 / cplxblur=20.0 / qblur=0.5 / vbv_maxrate=50000 / vbv_bufsize=62500 / nal_hrd=none / filler=0 / ip_ratio=1.25 / pb_ratio=1.30 / aq=1:0.80
Язык : English
Default : Да
Forced : Нет
Цветовой диапазон : Limited
Основные цвета : BT.601 PAL
Характеристики трансфера : BT.470 System B, BT.470 System G
Коэффициенты матрицы : BT.470 System B, BT.470 System G

Аудио
Идентификатор : 2
Формат : AC-3
Формат/Информация : Audio Coding 3
Параметр Endianness формата : Big
Идентификатор кодека : A_AC3
Продолжительность : 1 ч. 31 м.
Вид битрейта : Постоянный
Битрейт : 384 Кбит/сек
Каналы : 6 каналов
Расположение каналов : Front: L C R, Side: L R, LFE
Частота : 48,0 КГц
Частота кадров : 31,250 кадров/сек (1536 SPF)
Битовая глубина : 16 бит
Метод сжатия : С потерями
Размер потока : 250 Мбайт (13%)
Язык : Russian
Default : Да
Forced : Нет

Меню
00:00:00.000 : en:Chapter 1
00:02:29.160 : en:Chapter 2
00:06:28.040 : en:Chapter 3
00:10:18.840 : en:Chapter 4
00:15:19.040 : en:Chapter 5
00:19:08.720 : en:Chapter 6
00:23:08.080 : en:Chapter 7
00:27:25.200 : en:Chapter 8
00:30:55.320 : en:Chapter 9
00:34:55.160 : en:Chapter 10
00:37:21.800 : en:Chapter 11
00:42:39.720 : en:Chapter 12
00:45:20.200 : en:Chapter 13
00:49:59.000 : en:Chapter 14
00:53:15.200 : en:Chapter 15
00:58:48.560 : en:Chapter 16
01:02:26.360 : en:Chapter 17
01:05:15.560 : en:Chapter 18
01:10:44.200 : en:Chapter 19
01:14:38.800 : en:Chapter 20
01:17:49.000 : en:Chapter 21
01:22:15.240 : en:Chapter 22
01:25:30.720 : en:Chapter 23
01:30:10.280 : en:Chapter 24
01:31:05.360 : en:Chapter 25



Скачать Добровольцы.(Юрий.Егоров).[1958.героико-романтический.кинопоэма.DVDRip-AVC].torrent без регистрации
Золото ЗОЛОТАЯ РАЗДАЧА! СКАЧАННОЕ НЕ ЗАСЧИТЫВАЕТСЯ! Золото
Дата: Зарегистрирован   [ Тип: внешний ] Как тут cкачать?
MAGNET ссылка
MAGNET ссылка


Скачать .torrent

20 KB

Статус: проверено DHT
Скачан: торрент - 58 раз, раздача полностью - 16 раз
Размер: 1,9 GB
Оценка:  - (Голосов: 0)
Поблагодарили: 1
Поделиться ссылкой на эту раздачу с друзьями:
В контактеFacebookОдноклассникиTwitterLivejournalМой МирLiveinternet
 

 
Показать сообщения:    


Вы не можете начинать темы
Вы не можете отвечать на сообщения
Вы не можете редактировать свои сообщения
Вы не можете удалять свои сообщения
Вы не можете голосовать в опросах
Вы не можете прикреплять файлы к сообщениям
Вы можете скачивать файлы