Loading...
Error

/ The Crossing ( 01) ( , , . ) [2018, , , , WEB-DL 1080p] [MVO] (Lostfilm) + [Orig] + Sub (eng)

39,97 GB   |    :  127
1  [  0 KB/s  ]  
 
 
 

leon030982

[] 

/ The Crossing / 1


: 2018
:
: , ,
: 01:00:00
: ( ) LostFilm

: , , .

: , , , , , , , , ,

: , , , . , , 250 , . , , . , , , , . - , .



: WEB-DL 1080p (AMAZON)
: MKV
: H.264/AVC, 1920x1080p (1.78:1), 23.976 fps, ~10507 kbps, ~0.211 bit/pixel
1: E-AC3/DD+ 5.1, 48 kHz, 640 kbps
2: E-AC3/DD+ 5.1, 48 kHz, 640 kbps
: , (SDH)
General
Unique ID : 135566794888938773401591585075315536579 (0x65FD37088B430935FD2F656B735EF2C3)
Complete name : The.Crossing.2018.S01.1080p.AMZN.WEB-DL.H264.RUS\The.Crossing.S01E01.1080p.AMZN.WEB-DL.H264.RUS.mkv
Format : Matroska
Format version : Version 4 / Version 2
File size : 3.52 GiB
Duration : 42 min 44 s
Overall bit rate mode : Variable
Overall bit rate : 11.8 Mb/s
Movie name : The Crossing Season 1 / Pilot
Track name/Position : 1
Description : After 47 refugees mysteriously wash up in a small fishing town, local sheriff Jude Ellis teams with DHS agent Emma Ren to assess their unusual claim ... that they're fleeing a war 180 years in the future. The mystery deepens when Jude realizes that one of the new arrivals possesses heightened abilities and is a threat to his town, setting the two of them on a collision course. As the rest of the refugees acclimate to their unfamiliar surroundings, Emma learns that one has information that calls into question everything she thought she knew about our present time.
Released date : 2018-04-03
Encoded date : UTC 2018-04-12 11:47:27
Writing application : mkvmerge v22.0.0 ('At The End Of The World') 64-bit
Writing library : libebml v1.3.5 + libmatroska v1.4.8

Video
ID : 1
Format : AVC
Format/Info : Advanced Video Codec
Format profile : High@L4
Format settings : CABAC / 4 Ref Frames
Format settings, CABAC : Yes
Format settings, RefFrames : 4 frames
Codec ID : V_MPEG4/ISO/AVC
Duration : 42 min 44 s
Bit rate mode : Variable
Bit rate : 10.5 Mb/s
Maximum bit rate : 15.0 Mb/s
Width : 1 920 pixels
Height : 1 080 pixels
Display aspect ratio : 16:9
Frame rate mode : Constant
Frame rate : 23.976 (24000/1001) FPS
Color space : YUV
Chroma subsampling : 4:2:0
Bit depth : 8 bits
Scan type : Progressive
Bits/(Pixel*Frame) : 0.211
Stream size : 3.14 GiB (89%)
Language : English
Default : Yes
Forced : No
Color range : Limited
Color primaries : BT.709
Transfer characteristics : BT.709
Matrix coefficients : BT.709

Audio #1
ID : 2
Format : E-AC-3
Format/Info : Enhanced Audio Coding 3
Format settings, Endianness : Big
Codec ID : A_EAC3
Duration : 42 min 44 s
Bit rate mode : Constant
Bit rate : 640 kb/s
Channel(s) : 6 channels
Channel positions : Front: L C R, Side: L R, LFE
Sampling rate : 48.0 kHz
Frame rate : 187.500 FPS (256 SPF)
Compression mode : Lossy
Stream size : 196 MiB (5%)
Title : Lostfilm
Language : Russian
Service kind : Complete Main
Default : Yes
Forced : No

Audio #2
ID : 3
Format : E-AC-3
Format/Info : Enhanced Audio Coding 3
Format settings, Endianness : Big
Codec ID : A_EAC3
Duration : 42 min 44 s
Bit rate mode : Constant
Bit rate : 640 kb/s
Channel(s) : 6 channels
Channel positions : Front: L C R, Side: L R, LFE
Sampling rate : 48.0 kHz
Frame rate : 187.500 FPS (256 SPF)
Compression mode : Lossy
Stream size : 196 MiB (5%)
Language : English
Service kind : Complete Main
Default : No
Forced : No

Text #1
ID : 4
Format : UTF-8
Codec ID : S_TEXT/UTF8
Codec ID/Info : UTF-8 Plain Text
Duration : 40 min 50 s
Bit rate : 67 b/s
Count of elements : 675
Stream size : 20.1 KiB (0%)
Language : English
Default : No
Forced : No

Text #2
ID : 5
Format : UTF-8
Codec ID : S_TEXT/UTF8
Codec ID/Info : UTF-8 Plain Text
Duration : 42 min 30 s
Bit rate : 69 b/s
Count of elements : 826
Stream size : 21.7 KiB (0%)
Title : SDH
Language : English
Default : No
Forced : No
, . , :
(1) ,
(2) ( ),
(3) , , .
() ( - ), , . , !
E , , . , , , .



.The.Crossing.(.01).(......).[2018....WEB-DL.1080p].[MVO].(Lostfilm).+.[Orig].+.Sub.(eng).torrent
  ! ! 
:   [ : ] c?
MAGNET
MAGNET


.torrent

401 KB

: DHT
: - 127 , - 1
: 39,97 GB
- (: 0)
: 0
:
 FacebookTwitterLivejournal Liveinternet
 

 
: