Loading...
Error

Скачать Оскорбление / L'insulte (Зиад Дуэри) [2017, драма, BDRip 1080p] [MVO] (HDrezka Studio) торрент без регистрации

Статистика раздачи
Размер:  7,9 GB   |    Скачан:  50 раз
Сидов:  6  [  0 KB/s  ]  
 
 
 
Автор Сообщение

leon030982

[] 

Оскорбление / L'insulte

Информация о фильме

Год выхода: 2017
Жанр: драма
Страна: Ливан, Бельгия, Кипр, Франция, США
Продолжительность: 01:53:14
Перевод: Профессиональный (многоголосый, закадровый) | HDrezka Studio

Режиссер: Зиад Дуэри

В ролях: Адель Карам (Tony Hanna), Камел Эль Баша (Yasser Abdallah Salameh), Camille Salameh (Wajdi Wehbe), Диаманд Бу Аббуд (Nadine Wehbe), Rita Hayek (Shirine Hanna), Талаль Эль-Жорди (Talal), Christine Choueiri (Manal Salameh), Джулия Кассар (Judge Colette Mansour), Rifaat Torbey (Samir Geagea), Карлос Чаин (Judge Chahine), Georges Daoud (Georges Hanna), Кристина Фара

О фильме: Фильм рассказывает о споре двух мужчин — ливанца Тони и палестинца Ясира. Один из них — добрый христианин Тони, который случайно проливает воду на голову соседа снизу, Ясира. После их взаимной перепалки Тони решает подать в суд. Наступает долгий судебный процесс, в ходе которого сталкиваются не только оппоненты, но и их родственники.



Файл

Кодек: H.264
Качество: BDRip 1080p
Видео: 1920x808 (2.40:1), 23.976 fps, AVC, 8 166 Kbps
Звук: AC3, 320 Kbps, 48.0 KHz, 2 ch [Rus]
Звук: DTS, 1 510 Kbps, 48.0 KHz, 6 ch [Arab]
Субтитры: английские
General
Unique ID : 45287231875975462704939731859808065891 (0x221200EBB8E0624627D023E4C6BA1963)
Complete name : the.insult.2017.1080p.bluray.x264.Tapochek.mkv
Format : Matroska
Format version : Version 4 / Version 2
File size : 7.90 GiB
Duration : 1h 53mn
Overall bit rate : 9 993 Kbps
Movie name : Tapochek
Encoded date : UTC 2018-05-11 10:56:35
Writing application : mkvmerge v23.0.0 ('The Bride Said No') 64-bit
Writing library : libebml v1.3.6 + libmatroska v1.4.9
DURATION : 01:53:14.592000000
NUMBER_OF_FRAMES : 212331
NUMBER_OF_BYTES : 271783680
_STATISTICS_WRITING_APP : mkvmerge v23.0.0 ('The Bride Said No') 64-bit
_STATISTICS_WRITING_DATE_UTC : 2018-05-11 10:56:35
_STATISTICS_TAGS : BPS DURATION NUMBER_OF_FRAMES NUMBER_OF_BYTES

Video
ID : 1
Format : AVC
Format/Info : Advanced Video Codec
Format profile : High@L4.1
Format settings, CABAC : Yes
Format settings, ReFrames : 5 frames
Codec ID : V_MPEG4/ISO/AVC
Duration : 1h 53mn
Bit rate : 8 166 Kbps
Width : 1 920 pixels
Height : 808 pixels
Display aspect ratio : 2.40:1
Frame rate mode : Constant
Frame rate : 23.976 fps
Color space : YUV
Chroma subsampling : 4:2:0
Bit depth : 8 bits
Scan type : Progressive
Bits/(Pixel*Frame) : 0.220
Stream size : 6.30 GiB (80%)
Title : Tapochek
Writing library : x264 core 155 r2901 7d0ff22
Encoding settings : cabac=1 / ref=5 / deblock=1:0:0 / analyse=0x3:0x133 / me=umh / subme=7 / psy=1 / psy_rd=1.00:0.00 / mixed_ref=1 / me_range=16 / chroma_me=1 / trellis=2 / 8x8dct=1 / cqm=0 / deadzone=21,11 / fast_pskip=0 / chroma_qp_offset=-2 / threads=18 / lookahead_threads=3 / sliced_threads=0 / nr=0 / decimate=1 / interlaced=0 / bluray_compat=0 / constrained_intra=0 / bframes=3 / b_pyramid=2 / b_adapt=1 / b_bias=0 / direct=3 / weightb=1 / open_gop=0 / weightp=2 / keyint=250 / keyint_min=23 / scenecut=40 / intra_refresh=0 / rc_lookahead=50 / rc=2pass / mbtree=1 / bitrate=8166 / ratetol=1.0 / qcomp=0.60 / qpmin=0 / qpmax=69 / qpstep=4 / cplxblur=20.0 / qblur=0.5 / ip_ratio=1.40 / aq=1:1.00
Language : English
Default : Yes
Forced : No
DURATION : 01:53:13.381000000
NUMBER_OF_FRAMES : 162878
NUMBER_OF_BYTES : 6931833558
_STATISTICS_WRITING_APP : mkvmerge v23.0.0 ('The Bride Said No') 64-bit
_STATISTICS_WRITING_DATE_UTC : 2018-05-11 10:56:35
_STATISTICS_TAGS : BPS DURATION NUMBER_OF_FRAMES NUMBER_OF_BYTES

Audio #1
ID : 2
Format : AC-3
Format/Info : Audio Coding 3
Mode extension : CM (complete main)
Format settings, Endianness : Big
Codec ID : A_AC3
Duration : 1h 53mn
Bit rate mode : Constant
Bit rate : 320 Kbps
Channel(s) : 2 channels
Channel positions : Front: L R
Sampling rate : 48.0 KHz
Bit depth : 16 bits
Compression mode : Lossy
Stream size : 259 MiB (3%)
Title : HDRezka
Language : Russian
Default : Yes
Forced : No

Audio #2
ID : 3
Format : DTS
Format/Info : Digital Theater Systems
Codec ID : A_DTS
Duration : 1h 53mn
Bit rate mode : Constant
Bit rate : 1 510 Kbps
Channel(s) : 6 channels
Channel positions : Front: L C R, Side: L R, LFE
Sampling rate : 48.0 KHz
Bit depth : 24 bits
Compression mode : Lossy
Stream size : 1.19 GiB (15%)
Language : Arabic
Default : No
Forced : No

Text
ID : 4
Format : UTF-8
Codec ID : S_TEXT/UTF8
Codec ID/Info : UTF-8 Plain Text
Language : English
Default : Yes
Forced : Yes

Menu
00:00:00.000 : en:00:00:00.000
00:08:14.202 : en:00:08:14.202
00:16:30.198 : en:00:16:30.198
00:28:45.390 : en:00:28:45.390
00:35:48.063 : en:00:35:48.063
00:42:06.983 : en:00:42:06.983
00:51:51.400 : en:00:51:51.400
00:57:02.336 : en:00:57:02.336
01:04:15.727 : en:01:04:15.727
01:11:21.569 : en:01:11:21.569
01:21:27.341 : en:01:21:27.341
01:31:22.644 : en:01:31:22.644
01:37:26.340 : en:01:37:26.340
01:47:18.057 : en:01:47:18.057



Скачать Оскорбление.L'insulte.(Зиад.Дуэри).[2017.драма.BDRip.1080p].[MVO].(HDrezka.Studio).torrent без регистрации
Золото ЗОЛОТАЯ РАЗДАЧА! СКАЧАННОЕ НЕ ЗАСЧИТЫВАЕТСЯ! Золото
Дата: Зарегистрирован   [ Тип: внешний ] Как тут cкачать?
MAGNET ссылка
MAGNET ссылка


Скачать .torrent

40 KB

Статус: проверено DHT
Скачан: торрент - 50 раз, раздача полностью - 27 раз
Размер: 7,9 GB
Оценка:  - (Голосов: 0)
Поблагодарили: 2
Поделиться ссылкой на эту раздачу с друзьями:
В контактеFacebookОдноклассникиTwitterLivejournalМой МирLiveinternet
 

 
Показать сообщения:    


Вы не можете начинать темы
Вы не можете отвечать на сообщения
Вы не можете редактировать свои сообщения
Вы не можете удалять свои сообщения
Вы не можете голосовать в опросах
Вы не можете прикреплять файлы к сообщениям
Вы можете скачивать файлы