Loading...
Error

Скачать Юнона и Авось (Марк Захаров) [1983, мюзикл, драма, мелодрама, музыка, DVDRip-AVC] торрент без регистрации

Статистика раздачи
Размер:  1,72 GB   |    Скачан:  45 раз
Сидов:  1  [  0 KB/s  ]  
 
 
 
Автор Сообщение

Marsianka

[] 

Информация о фильме
Название: Юнона и Авось
Год выхода: 1983
Жанр: мюзикл, драма, мелодрама, музыка
Режиссер: Марк Захаров
В ролях: Николай Караченцов, Елена Шанина, Павел Смеян, Александр Абдулов, Александр Садо, Владимир Ширяев, Владимир Кузнецов (VI), Владимир Белоусов, Игорь Фокин, Роман Овчинников, Сергей Греков, Виллор Кузнецов, Людмила Поргина, Ирина Алферова, Николай Шушарин, Борис Чунаев, Юрий Поляков, Владимир Корецкий

О фильме: Два парусных корабля «Юнона» и «Авось» под российским флагом прибывают в Калифорнию, где капитан брига «Авось» полюбил местную красавицу с гасиенды, чем вызвал ревность и ненависть влюбленного в нее соперника.



Страна: СССР
Студия: Гостелерадио
Продолжительность: 01:23:15

Файл
Кодек: х264
Качество: DVDRip-AVC
Видео: MPEG-4 AVC, 698x572@744x572, 25 fps, 2500 Кбит/с
Аудио: AC3, 6 ch, 448 Кбит/с

Общее
Уникальный идентификатор : 172822266433347959225145305278363725391 (0x82045B98A7C3517B9D27D9E4B81FEE4F)
Полное имя : Юнона и Авось_1983-DVDRip-AVC.mkv
Формат : Matroska
Размер файла : 1,72 Гбайт
Продолжительность : 1 ч. 23 м.
Общий поток : 2950 Кбит/сек
Дата кодирования : UTC 2017-05-12 15:04:43
Программа кодирования : mkvmerge v5.8.0 ('No Sleep / Pillow') built on Sep 2 2012 15:37:04
Библиотека кодирования : libebml v1.2.3 + libmatroska v1.3.0

Видео
Идентификатор : 1
Формат : AVC
Формат/Информация : Advanced Video Codec
Профиль формата : High@L4.1
Параметр CABAC формата : Да
Параметр ReFrames формата : 15 кадры
Идентификатор кодека : V_MPEG4/ISO/AVC
Продолжительность : 1 ч. 23 м.
Битрейт : 2500 Кбит/сек
Ширина : 698 пикс.
Высота : 572 пикс.
Соотношение сторон : 4:3
Соотношение сторон в оригинале : 4:3
Частота кадров : 25,000 кадр/сек
Цветовое пространство : YUV
Подвыборка цветности : 4:2:0
Битовая глубина : 8 бит
Тип развёртки : Прогрессивная
Бит/(Пиксели*Кадры) : 0.250
Размер потока : 1,42 Гбайт (83%)
Заголовок : korsar.tv
Библиотека кодирования : x264 core 148 r2744kMod b97ae06
Настройки программы : cabac=1 / ref=15 / deblock=1:-1:-1 / analyse=0x3:0x133 / me=umh / subme=10 / psy=1 / fade_compensate=0.00 / psy_rd=1.05:0.10 / mixed_ref=1 / me_range=32 / chroma_me=1 / trellis=2 / 8x8dct=1 / cqm=0 / deadzone=21,11 / fast_pskip=0 / chroma_qp_offset=-3 / threads=12 / lookahead_threads=2 / sliced_threads=0 / nr=0 / decimate=0 / interlaced=0 / bluray_compat=0 / constrained_intra=0 / bframes=9 / b_pyramid=2 / b_adapt=2 / b_bias=0 / direct=3 / weightb=1 / open_gop=0 / weightp=2 / keyint=250 / keyint_min=25 / scenecut=40 / intra_refresh=0 / rc_lookahead=40 / rc=2pass / mbtree=1 / bitrate=2500 / ratetol=1.0 / qcomp=0.63 / qpmin=0 / qpmax=39 / qpstep=4 / cplxblur=20.0 / qblur=0.5 / ip_ratio=1.25 / aq=2:0.90
Язык : English
Основные цвета : BT.470-6 System B, BT.470-6 System G, BT.601-6 625, BT.1358 625, BT.1700 625 PAL, BT.1700 625 SECAM
Характеристики трансфера : BT.470-6 System B, BT.470-6 System G
Коэффициенты матрицы : BT.470-6 System B, BT.470-6 System G, BT.601-6 625, BT.1358 625, BT.1700 625 PAL, BT.1700 625 SECAM, IEC 61966-2-4 601

Аудио
Идентификатор : 2
Формат : AC-3
Формат/Информация : Audio Coding 3
Расширение режима : CM (complete main)
Идентификатор кодека : A_AC3
Продолжительность : 1 ч. 23 м.
Вид битрейта : Постоянный
Битрейт : 448 Кбит/сек
Канал(ы) : 6 канала(ов)
Расположение каналов : Front: L C R, Side: L R, LFE
Частота : 48,0 КГц
Битовая глубина : 16 бит
Метод сжатия : С потерями
Размер потока : 267 Мбайт (15%)
Язык : Russian
Релиз от:



Скачать Юнона.и.Авось.(Марк.Захаров).[1983.мюзикл.драма.мелодрама.музыка.DVDRip-AVC].torrent без регистрации
Золото ЗОЛОТАЯ РАЗДАЧА! СКАЧАННОЕ НЕ ЗАСЧИТЫВАЕТСЯ! Золото
Дата: Зарегистрирован   [ Тип: внутренний ] Как тут cкачать?
MAGNET ссылка
MAGNET ссылка


Скачать .torrent

18 KB

Статус: проверено DHT
Скачан: торрент - 45 раз, раздача полностью - 7 раз
Размер: 1,72 GB
Оценка:  - (Голосов: 0)
Поблагодарили: 0
Поделиться ссылкой на эту раздачу с друзьями:
В контактеFacebookОдноклассникиTwitterLivejournalМой МирLiveinternet
 

 
Показать сообщения:    


Вы не можете начинать темы
Вы не можете отвечать на сообщения
Вы не можете редактировать свои сообщения
Вы не можете удалять свои сообщения
Вы не можете голосовать в опросах
Вы не можете прикреплять файлы к сообщениям
Вы можете скачивать файлы