Loading...
Error

Скачать Патрик Мелроуз / Patrick Melrose (Сезон 01) (Эдвард Бергер) [2018, Драма, WEB-DL 1080p] [MVO] (Amedia) торрент без регистрации

Статистика раздачи
Размер:  18,83 GB   |    Скачан:  175 раз
Сидов:  1  [  0 KB/s  ]  
 
 
 
Автор Сообщение

leon030982

[] 

Патрик Мелроуз / Patrick Melrose


Год выпуска: 2018
Страна: США
Жанр: Драма
Продолжительность: ~ 01:00:00
Перевод: Профессиональный (многоголосый закадровый)[Novamedia по заказу Амедиа]

Режиссёр: Эдвард Бергер

В ролях: Бенедикт Камбербэтч, Дженнифер Джейсон Ли, Джессика Рэйн, Хьюго Уивинг, Прасанна Пуванараджа, Пип Торренс, Анна Маделей, Индира Варма, Дейнтон Андерсон

Описание:
Патрик Мелроуз — плейбой, аристократ и алкоголик. Несмотря на деньги, жизнь Патрика сложно назвать легкой и безмятежной. Все детство ему пришлось терпеть жестокое отношение отца, пока мать предпочитала не вмешиваться. Подросший Патрик находит в себе силы пробраться в высший свет, но вместе с этим начинается его путь к саморазрушению.



Качество: WEB-DL 1080p
Формат: MKV
Видео: MPEG-4 AVC, ~ 8300 Кбит/с, 1920x1080 at 23.976 fps
Аудио1: Russian, AC3, 48 kHz, 2 ch, 192 kbps
Аудио2: English, E-AC3, 48 kHz, 6 ch, 640 kbps
Субтитры: Русские, английские
General
Unique ID : 236128223059181781868929809535713660926 (0xB1A4A43CA6AFF0D2BB9DCF7E772BCFFE)
Complete name : F:\Patrick_Melrose_(s01)_1080p_Amedia\Patrick.Melrose.s01e01.WEB-DL.1080p.mkv
Format : Matroska
Format version : Version 4 / Version 2
File size : 4.08 GiB
Duration : 1 h 3 min
Overall bit rate mode : Variable
Overall bit rate : 9 162 kb/s
Encoded date : UTC 2018-05-14 06:54:16
Writing application : mkvmerge v18.0.0 ('Apricity') 64-bit
Writing library : libebml v1.3.5 + libmatroska v1.4.8

Video
ID : 1
Format : AVC
Format/Info : Advanced Video Codec
Format profile : High@L4
Format settings : CABAC / 4 Ref Frames
Format settings, CABAC : Yes
Format settings, RefFrames : 4 frames
Codec ID : V_MPEG4/ISO/AVC
Duration : 1 h 3 min
Bit rate mode : Variable
Bit rate : 8 148 kb/s
Maximum bit rate : 15.0 Mb/s
Width : 1 920 pixels
Height : 1 080 pixels
Display aspect ratio : 16:9
Frame rate mode : Constant
Frame rate : 23.976 (24000/1001) FPS
Color space : YUV
Chroma subsampling : 4:2:0
Bit depth : 8 bits
Scan type : Progressive
Bits/(Pixel*Frame) : 0.164
Stream size : 3.63 GiB (89%)
Language : English
Default : Yes
Forced : No
Color range : Limited
Color primaries : BT.709
Transfer characteristics : BT.709
Matrix coefficients : BT.709

Audio #1
ID : 2
Format : AC-3
Format/Info : Audio Coding 3
Format settings, Endianness : Big
Codec ID : A_AC3
Duration : 1 h 3 min
Bit rate mode : Constant
Bit rate : 192 kb/s
Channel(s) : 2 channels
Channel positions : Front: L R
Sampling rate : 48.0 kHz
Frame rate : 31.250 FPS (1536 SPF)
Bit depth : 16 bits
Compression mode : Lossy
Stream size : 87.7 MiB (2%)
Title : Novamedia
Language : Russian
Service kind : Complete Main
Default : Yes
Forced : No

Audio #2
ID : 3
Format : E-AC-3
Format/Info : Enhanced Audio Coding 3
Format settings, Endianness : Big
Codec ID : A_EAC3
Duration : 1 h 3 min
Bit rate mode : Constant
Bit rate : 640 kb/s
Channel(s) : 6 channels
Channel positions : Front: L C R, Side: L R, LFE
Sampling rate : 48.0 kHz
Frame rate : 187.500 FPS (256 SPF)
Compression mode : Lossy
Stream size : 292 MiB (7%)
Language : English
Service kind : Complete Main
Default : No
Forced : No

Text #1
ID : 4
Format : UTF-8
Codec ID : S_TEXT/UTF8
Codec ID/Info : UTF-8 Plain Text
Title : Full
Language : English
Default : No
Forced : No

Text #2
ID : 5
Format : UTF-8
Codec ID : S_TEXT/UTF8
Codec ID/Info : UTF-8 Plain Text
Title : SDH
Language : English
Default : No
Forced : No
Внимание! Раздача ведётся путём добавления новых серий; при каждом добавлении создаётся новый торрент. Чтобы начать докачку новой серии, пользователям необходимо сделать следующее:
(1) остановить скачивание,
(2) удалить старый торрент у себя из клиента (старые серии удалять не надо),
(3) скачать новый торрент и запустить его у себя в клиенте вместо старого, при этом указать клиенту путь в старую папку куда и должно происходить скачивание новых серий.

Ваш клиент при этом должен произвести хеширование (проверку) старой папки (если не производит сам - помогите ему сделать это), и будет докачивать только те серии которых у вас ещё нет. Старые серии при этом не удаляются, а продолжают раздаваться!

Eсли вы уже удалили старые серии, то предотвратить повторную закачку старых серий можно, отжав галочку в соответствующих местах при запуске нового торрента. По возможности, желательно не удалять старые серии как можно дольше чтобы релизёр не столько продолжал раздавать старые серии, а смог сконцентрироваться на новых.



Скачать Патрик.Мелроуз.Patrick.Melrose.(Сезон.01).(Эдвард.Бергер).[2018.Драма.WEB-DL.1080p].[MVO].(Amedia).torrent без регистрации
Золото ЗОЛОТАЯ РАЗДАЧА! СКАЧАННОЕ НЕ ЗАСЧИТЫВАЕТСЯ! Золото
Дата: Зарегистрирован   [ Тип: внутренний ] Как тут cкачать?
MAGNET ссылка
MAGNET ссылка


Скачать .torrent

48 KB

Статус: проверено DHT
Скачан: торрент - 175 раз, раздача полностью - 3 раз
Размер: 18,83 GB
Оценка:  - (Голосов: 0)
Поблагодарили: 1
Поделиться ссылкой на эту раздачу с друзьями:
В контактеFacebookОдноклассникиTwitterLivejournalМой МирLiveinternet
 

 
Показать сообщения:    


Вы не можете начинать темы
Вы не можете отвечать на сообщения
Вы не можете редактировать свои сообщения
Вы не можете удалять свои сообщения
Вы не можете голосовать в опросах
Вы не можете прикреплять файлы к сообщениям
Вы можете скачивать файлы