Loading...
Error

Скачать Леонардо: Миссия Мона Лиза / Leo Da Vinci: Mission Mona Lisa (Серджо Манфио) [2018 г., мультфильм, приключения, семейный, WEB-DL 720p] [DUB] [iTunes] торрент без регистрации

Статистика раздачи
Размер:  2,52 GB   |    Скачан:  99 раз
Сидов:  11  [  0 KB/s  ]  
 
 
 
Автор Сообщение

leon030982

[] 

Леонардо: Миссия Мона Лиза / Leo Da Vinci: Mission Mona Lisa

Год выхода: 2018
Страна: Италия
Жанр: мультфильм, приключения, семейный
Продолжительность: 01:22:00
Перевод: Профессиональный (полное дублирование) | iTunes
Субтитры: Отсутствуют


Режиссер: Серджо Манфио

В ролях: Алекс Полидори, Эмануэла Ионика, Габриэль Патриарка, Арианна Виньоли, Джулио Бартоломеи, Роберто Драгетти, Франко Маннелла, Роберто Стокки, Давид Джарболино, Стефано Мондини

О фильме: Леонардо живёт спокойной и мирной жизнью, посвятив себя изобретательству. Его друг Лоренцо во всём помогает товарищу и поддерживает во всех начинаниях, а вот прекрасная Джоконда насмехается над странными идеями Леонардо. Но вскоре в жизни девушки происходит несчастье — в ее доме происходит пожар, и она остается ни с чем. Однажды в их город забредает рассказчик, который упоминает о потерянном сокровище, которое ещё никому не удавалось найти. Ребята решают, что им повезёт, и отправляются в удивительное путешествие.



Качество: WEB-DL 720p
Формат: MKV
Видео кодек: AVC
Аудио кодек: AC3
Видео: AVC, 3922 Кбит/сек, 1280x572, 24.000 кадр/с
Аудио: 48 kHz, AC-3, 6 ch, 384 Kbps | Дублированный | iTunes |
Общее
Уникальный идентификатор : 149695251321130171758571593260875407068 (0x709E41B76E7BE17B150E9E5597745EDC)
Полное имя : C:\Users\Eduard\Desktop\Леонардо_ Миссия Мона Лиза (HD)_Original.mkv
Формат : Matroska
Версия формата : Version 4 / Version 2
Размер файла : 2,52 Гбайт
Продолжительность : 1 ч. 22 м.
Общий поток : 4393 Кбит/сек
Название фильма : Леонардо: Миссия Мона Лиза
Описание : Леонардо живёт спокойной и мирной жизнью, посвятив себя изобретательству. Его друг Лоренцо во всём
Программа кодирования : Lavf56.36.100
Библиотека кодирования : Lavf56.36.100 / Lavf56.36.100
ARTIST : Серджо Манфио
COMPILATION : 0
DATE : 2018-04-19T07:00:00Z
GENRE : Для всей семьи
HD_VIDEO : 1
ITUNEXTC : ru-movie|0+|100|
ITUNMOVI : <?xml version="1.0" encoding="UTF-8" standalone="no"?> / <!DOCTYPE plist PUBLIC "-//Apple Computer//DTD PLIST 1.0//EN DTDs/PropertyList-1.0.dtd"> / <plist version="1.0"> / <dict> / <key>studio</key><string>Gruppo Alcuni</string> / <key>cast</key> / <array> / <dict> / <key>name</key><string>Алекс Полидори</string> / <key>adamId</key><integer>1377522401</integer> / </dict> / <dict> / <key>name</key><string>Эмануэла Ионика</string> / <key>adamId</key><integer>1377522404</integer> / </dict> / <dict> / <key>name</key><string>Габриэль Патриарка</string> / <key>adamId</key><integer>1377522407</integer> / </dict> / <dict> / <key>name</key><string>Арианна Виньоли</string> / <key>adamId</key><integer>1377522410</integer> / </dict> / <dict> / <key>name</key><string>Джулио Бартоломеи</string> / <key>adamId</key><integer>1377522413</integer> / </dict> / <dict> / <key>name</key><string>Роберто Драгетти</string> / <key>adamId</key><integer>1377522416</integer> / </dict> / <dict> / <key>name</key><string>Франко Маннелла</string> / <key>adamId</key><integer>1377522419</integer> / </dict> / <dict> / <key>name</key><string>Роберто Стокки</string> / <key>adamId</key><integer>1377522422</integer> / </dict> / </array> / <key>directors</key> / <array> / <dict> / <key>name</key><string>Серджо Манфио</string> / <key>adamId</key><integer>1377522425</integer> / </dict> / </array> / <key>codirectors</key> / <array> / </array> / <key>producers</key> / <array> / <dict> / <key>name</key><string>Фабио Теста</string> / <key>adamId</key><integer>1377522428</integer> / </dict> / </array> / <key>screenwriters</key> / <array> / <dict> / <key>name</key><string>Серджо Манфио</string> / <key>adamId</key><integer>1377522425</integer> / </dict> / <dict> / <key>name</key><string>Франческо Манфио</string> / <key>adamId</key><integer>1377522581</integer> / </dict> / <dict> / <key>name</key><string>Анна Манфио</string> / <key>adamId</key><integer>1377522584</integer> / </dict> / <dict> / <key>name</key><string>Давид Стефанато</string> / <key>adamId</key><integer>1377522587</integer> / </dict> / </array> / </dict> / </plist>
MEDIA_TYPE : 9
PURCHASE_DATE : 2018-05-13 11:15:26
SORT_ARTIST : Серджо Манфио
SORT_NAME : Леонардо: Миссия Мона Лиза
SYNOPSIS : Леонардо живёт спокойной и мирной жизнью, посвятив себя изобретательству. Его друг Лоренцо во всём помогает товарищу и поддерживает во всех начинаниях, а вот прекрасная Джоконда насмехается над странными идеями Леонардо. Но вскоре в жизни девушки происходит несчастье — в ее доме происходит пожар, и она остается ни с чем. Однажды в их город забредает рассказчик, который упоминает о потерянном сокровище, которое ещё никому не удавалось найти. Ребята решают, что им повезёт, и отправляются в удивительное путешествие.

Видео
Идентификатор : 1
Формат : AVC
Формат/Информация : Advanced Video Codec
Профиль формата : High@L3.1
Параметр CABAC формата : Нет
Параметр ReFrames формата : 2 кадра
Идентификатор кодека : V_MPEG4/ISO/AVC
Продолжительность : 1 ч. 22 м.
Битрейт : 3922 Кбит/сек
Ширина : 1280 пикселей
Высота : 572 пикселя
Соотношение сторон : 2,25:1
Режим частоты кадров : Постоянный
Частота кадров : 24,000 кадра/сек
Цветовое пространство : YUV
Субдискретизация насыщенности : 4:2:0
Битовая глубина : 8 бит
Тип развёртки : Прогрессивная
Бит/(Пиксели*Кадры) : 0.223
Размер потока : 2,25 Гбайт (89%)
Библиотека кодирования : JVT/AVC Coding
Язык : English
Default : Да
Forced : Нет
Дата кодирования : UTC 2018-05-13 11:25:57
Цветовой диапазон : Limited
Основные цвета : BT.709
Характеристики трансфера : BT.709
Коэффициенты матрицы : BT.709

Аудио
Идентификатор : 2
Формат : AC-3
Формат/Информация : Audio Coding 3
Расширение режима : CM (complete main)
Параметр Endianness формата : Big
Идентификатор кодека : A_AC3
Продолжительность : 1 ч. 22 м.
Вид битрейта : Постоянный
Битрейт : 384 Кбит/сек
Каналы : 6 каналов
Расположение каналов : Front: L C R, Side: L R, LFE
Частота : 48,0 КГц
Частота кадров : 31,250 кадров/сек (1536 spf)
Битовая глубина : 32 бит
Метод сжатия : С потерями
Задержка видео : -47 мс.
Размер потока : 225 Мбайт (9%)
Библиотека кодирования : Lavc56.41.100 ac3
Язык : Russian
Default : Да
Forced : Нет
Дата кодирования : UTC 2018-05-13 11:25:57



Скачать Леонардо.Миссия.Мона.Лиза.Leo.Da.Vinci.Mission.Mona.Lisa.(Серджо.Манфио).[2018.г.мультфильм.приключения.семейный.WEB-DL.720p].[DUB].[iTunes].torrent без регистрации
Золото ЗОЛОТАЯ РАЗДАЧА! СКАЧАННОЕ НЕ ЗАСЧИТЫВАЕТСЯ! Золото
Дата: Зарегистрирован   [ Тип: внешний ] Как тут cкачать?
MAGNET ссылка
MAGNET ссылка


Скачать .torrent

26 KB

Статус: проверено DHT
Скачан: торрент - 99 раз, раздача полностью - 111 раз
Размер: 2,52 GB
Оценка:  5 (Голосов: 1)
Поблагодарили: 4
Поделиться ссылкой на эту раздачу с друзьями:
В контактеFacebookОдноклассникиTwitterLivejournalМой МирLiveinternet
 

 
Показать сообщения:    


Вы не можете начинать темы
Вы не можете отвечать на сообщения
Вы не можете редактировать свои сообщения
Вы не можете удалять свои сообщения
Вы не можете голосовать в опросах
Вы не можете прикреплять файлы к сообщениям
Вы можете скачивать файлы