Loading...
Error

Скачать Ливень / Hard Rain (Микаэл Саломон / Mikael Salomon) [1998, Боевик, Триллер, Драма, Криминал, DVB] [Fullscreen] [MVO] (Первый канал) торрент без регистрации

Статистика раздачи
Размер:  2,46 GB   |    Скачан:  30 раз
Сидов:  1  [  0 KB/s  ]  
 
 
 
Автор Сообщение

leon030982

[] 

Ливень / Hard Rain

«A simple plan. An instant fortune. Just add water»

Год выпуска: 1998
Страна: США, Великобритания, Дания, Франция, Япония, Новая Зеландия, Германия
Жанр: Боевик, Триллер, Драма, Криминал
Продолжительность: 01:28:59
Перевод: Профессиональный (многоголосый закадровый) Первый канал
Субтитры: нет

Режиссер: Микаэл Саломон / Mikael Salomon

В ролях: Морган Фриман, Кристиан Слэйтер, Рэнди Куэйд, Минни Драйвер, Эдвард Эснер, Майкл А. Гурджиан, Дэнн Флорек, Рики Харрис, Марк Ролстон, Питер Мёрник

Описание: Вышедшая из берегов река становится причиной крупного наводнения в провинциальном американском городке. Мимо города следует инкассаторский автомобиль, перевозящий несколько миллионов долларов. Попав в засаду, неопытный охранник Том оказывается один на один с бандой «беспощадного Джима» и бушующей природной стихией. Выжить невозможно…



Качество видео: DVB
Формат видео: TS
Видео: MPEG-4 AVC, 720x576 (4:3), 3507 Кбит/с, 25 кадров/сек
Аудио: MPEG Layer 2, 48 КГц, 2 канал, 256 Кбит/с
Общее
Идентификатор : 1 (0x1)
Полное имя : C:\Фильмы\Hard.Rain.1998.DVB.Fullscreen.MVO.Rutracker-PB.ts
Формат : MPEG-TS
Размер файла : 2,46 Гбайт
Продолжительность : 1 ч. 28 м.
Режим общего битрейта : Переменный
Общий поток : 3962 Кбит/сек

Видео
Идентификатор : 67 (0x43)
Идентификатор меню : 1 (0x1)
Формат : AVC
Формат/Информация : Advanced Video Codec
Профиль формата : High@L3.0
Параметр CABAC формата : Да
Параметр ReFrames формата : 3 кадра
Параметр GOP формата : M=4, N=28
Идентификатор кодека : 27
Продолжительность : 1 ч. 28 м.
Битрейт : 3507 Кбит/сек
Ширина : 720 пикселей
Высота : 576 пикселей
Соотношение сторон : 4:3
Частота кадров : 25,000 кадров/сек
Стандарт вещания : Component
Цветовое пространство : YUV
Субдискретизация насыщенности : 4:2:0
Битовая глубина : 8 бит
Тип развёртки : Чересстрочная
Порядок развёртки : Верхнее поле первое
Бит/(Пиксели*Кадры) : 0.338
Размер потока : 2,18 Гбайт (89%)
Основные цвета : BT.601 PAL
Характеристики трансфера : BT.470 System B, BT.470 System G
Коэффициенты матрицы : BT.601

Аудио
Идентификатор : 68 (0x44)
Идентификатор меню : 1 (0x1)
Формат : MPEG Audio
Версия формата : Version 1
Профиль формата : Layer 2
Идентификатор кодека : 3
Продолжительность : 1 ч. 28 м.
Вид битрейта : Постоянный
Битрейт : 256 Кбит/сек
Каналы : 2 канала
Частота : 48,0 КГц
Метод сжатия : С потерями
Задержка видео : -120 мс.
Размер потока : 163 Мбайт (6%)
Язык : English



Скачать Ливень.Hard.Rain.(Микаэл.Саломон.Mikael.Salomon).[1998.Боевик.Триллер.Драма.Криминал.DVB].[Fullscreen].[MVO].(Первый.канал).torrent без регистрации
Золото ЗОЛОТАЯ РАЗДАЧА! СКАЧАННОЕ НЕ ЗАСЧИТЫВАЕТСЯ! Золото
Дата: Зарегистрирован   [ Тип: внутренний ] Как тут cкачать?
MAGNET ссылка
MAGNET ссылка


Скачать .torrent

13 KB

Статус: проверено DHT
Скачан: торрент - 30 раз, раздача полностью - 2 раз
Размер: 2,46 GB
Оценка:  - (Голосов: 0)
Поблагодарили: 0
Поделиться ссылкой на эту раздачу с друзьями:
В контактеFacebookОдноклассникиTwitterLivejournalМой МирLiveinternet
 

 
Показать сообщения:    


Вы не можете начинать темы
Вы не можете отвечать на сообщения
Вы не можете редактировать свои сообщения
Вы не можете удалять свои сообщения
Вы не можете голосовать в опросах
Вы не можете прикреплять файлы к сообщениям
Вы можете скачивать файлы