Loading...
Error

Скачать Шел четвертый год войны... (Георгий Николаенко) [1983, военный, DVDRip-AVC] торрент без регистрации

Статистика раздачи
Размер:  1,59 GB   |    Скачан:  47 раз
Сидов:  1  [  0 KB/s  ]  
 
 
 
Автор Сообщение

Marsianka

[] 

Информация о фильме
Название: Шел четвертый год войны...
Год выхода: 1983
Жанр: военный
Режиссер: Георгий Николаенко
В ролях: Людмила Савельева, Николай Олялин, Александр Збруев, Николай Ерёменко мл., Александр Денисов, Тимофей Спивак, Вячеслав Баранов, Лев Дуров, Владимир Смирнов, Александр Лебедев

О фильме: 1944 год. На одном из участков фронта советское командование готовит крупное наступление. Войска должны пройти через лесной массив, охраняемый фашистами. Для выяснений целей вражеских формирований в этот район направляется группа советских разведчиков, которую возглавляет капитан Надежда Мороз…



Страна: СССР
Студия: Студия Горького
Продолжительность: 01:22:03

Файл
Кодек: х264
Качество: DVDRip-AVC
Видео: MPEG-4 AVC, 692х446@750x446, 25 fps, 2461 Кбит/с
Аудио: AC3, 2 ch, 256 Кбит/с

Общее
Уникальный идентификатор : 249132786805307304551409710567313351363 (0xBB6D3ABB82F0F264A2BD4EAADAABA2C3)
Полное имя : D:Шёл четвёртый год войны_1983-DVDRip-AVC_KORSAR.mkv
Формат : Matroska
Размер файла : 1,59 Гбайт
Продолжительность : 1 ч. 22 м.
Общий поток : 2772 Кбит/сек
Название фильма : Шёл четвёртый год войны_1983-DVDRip-AVC_KORSAR
Дата кодирования : UTC 2018-05-11 15:35:57
Программа кодирования : mkvmerge v5.8.0 ('No Sleep / Pillow') built on Sep 2 2012 15:37:04
Библиотека кодирования : libebml v1.2.3 + libmatroska v1.3.0

Видео
Идентификатор : 1
Формат : AVC
Формат/Информация : Advanced Video Codec
Профиль формата : High@L4.1
Параметр CABAC формата : Да
Параметр ReFrames формата : 12 кадры
Идентификатор кодека : V_MPEG4/ISO/AVC
Продолжительность : 1 ч. 22 м.
Битрейт : 2461 Кбит/сек
Ширина : 692 пикс.
Высота : 446 пикс.
Соотношение сторон : 1,682
Частота кадров : 25,000 кадр/сек
Цветовое пространство : YUV
Подвыборка цветности : 4:2:0
Битовая глубина : 8 бит
Тип развёртки : Прогрессивная
Бит/(Пиксели*Кадры) : 0.319
Размер потока : 1,41 Гбайт (89%)
Библиотека кодирования : x264 core 152 r2851kMod ba24899
Настройки программы : cabac=1 / ref=12 / deblock=1:-2:-1 / analyse=0x3:0x133 / me=umh / subme=10 / psy=1 / fade_compensate=0.00 / psy_rd=1.04:0.10 / mixed_ref=1 / me_range=32 / chroma_me=1 / trellis=2 / 8x8dct=1 / cqm=0 / deadzone=21,11 / fast_pskip=1 / chroma_qp_offset=-3 / threads=12 / lookahead_threads=3 / sliced_threads=0 / nr=0 / decimate=1 / interlaced=0 / bluray_compat=0 / constrained_intra=0 / bframes=10 / b_pyramid=2 / b_adapt=2 / b_bias=0 / direct=1 / weightb=1 / open_gop=0 / weightp=2 / keyint=250 / keyint_min=25 / scenecut=40 / intra_refresh=0 / rc=crf / mbtree=0 / crf=18.0000 / qcomp=0.63 / qpmin=0 / qpmax=39 / qpstep=4 / ip_ratio=1.40 / pb_ratio=1.30 / aq=1:0.80
Язык : English
Основные цвета : BT.470-6 System B, BT.470-6 System G, BT.601-6 625, BT.1358 625, BT.1700 625 PAL, BT.1700 625 SECAM
Характеристики трансфера : BT.470-6 System B, BT.470-6 System G
Коэффициенты матрицы : BT.470-6 System B, BT.470-6 System G, BT.601-6 625, BT.1358 625, BT.1700 625 PAL, BT.1700 625 SECAM, IEC 61966-2-4 601

Аудио
Идентификатор : 2
Формат : AC-3
Формат/Информация : Audio Coding 3
Расширение режима : CM (complete main)
Идентификатор кодека : A_AC3
Продолжительность : 1 ч. 22 м.
Вид битрейта : Постоянный
Битрейт : 256 Кбит/сек
Канал(ы) : 2 канала(ов)
Расположение каналов : Front: L R
Частота : 48,0 КГц
Битовая глубина : 16 бит
Метод сжатия : С потерями
Размер потока : 150 Мбайт (9%)
Язык : Russian
Релиз от:



Скачать Шел.четвертый.год.войны.(Георгий.Николаенко).[1983.военный.DVDRip-AVC].torrent без регистрации
Золото ЗОЛОТАЯ РАЗДАЧА! СКАЧАННОЕ НЕ ЗАСЧИТЫВАЕТСЯ! Золото
Дата: Зарегистрирован   [ Тип: внутренний ] Как тут cкачать?
MAGNET ссылка
MAGNET ссылка


Скачать .torrent

17 KB

Статус: проверено DHT
Скачан: торрент - 47 раз, раздача полностью - 12 раз
Размер: 1,59 GB
Оценка:  - (Голосов: 0)
Поблагодарили: 0
Поделиться ссылкой на эту раздачу с друзьями:
В контактеFacebookОдноклассникиTwitterLivejournalМой МирLiveinternet
 

 
Показать сообщения:    


Вы не можете начинать темы
Вы не можете отвечать на сообщения
Вы не можете редактировать свои сообщения
Вы не можете удалять свои сообщения
Вы не можете голосовать в опросах
Вы не можете прикреплять файлы к сообщениям
Вы можете скачивать файлы