Loading...
Error

Скачать Безопасность / Safe (Сезон 01) (Джулия Форд, Дэниэл О’Хара, Дэниэл Неттхейм) [2018, Драма, триллер, WEBRip] [1080p] [MVO] (LostFilm) торрент без регистрации

Статистика раздачи
Размер:  11,09 GB   |    Скачан:  138 раз
Сидов:  1  [  0 KB/s  ]  
 
 
 
Автор Сообщение

leon030982

[] 

Безопасность / Safe


Год выпуска: 2018
Страна: Великобритания
Жанр: Драма, триллер
Продолжительность: ~ 00:45:00
Перевод: Профессиональный (многоголосый закадровый)*LostFilm*

Режиссёр: Джулия Форд, Дэниэл О’Хара, Дэниэл Неттхейм

В ролях: Майкл Карлайл Холл, Аманда Аббингтон, Ханна Артертон, Луис Гриторекс, Чук Сибтайн, Хиро Файнс-Тиффин, Кэти Кармайкл, Изабелль Аллен, Одри Флеро

Описание:
Сюжет восьмисерийного триллера вращается вокруг британца Тома — детского хирурга и вдовствующего отца двоих дочерей, Дженни и Кэрри. Однажды Дженни, отношения которой с папой оставляют желать лучшего, отправляется на вечеринку и бесследно пропадает. Это событие становится началом сущего кошмара не только для семьи Тома, но и для всего городка, обитатели которого до сей поры жили в полной уверенности, что у них тут вполне безопасно. Выяснится, что страшные тайны имеются не только у подростков, но и у благопристойных взрослых горожан, и еще надо выяснить, чьи секреты страшнее.



Релиз -- Atla22

Качество: WEBRip 1080p
Формат: MKV
Видео: MPEG-4 AVC, ~ 4220 Кбит/с, 1920x1080
Аудио: AC3, 48 kHz, 6 ch, 384 kbps
Субтитры: английские
General
Unique ID : 181232116367725239471097583547112830316 (0x88580935F7A88E7ABE5409CA72F1356C)
Complete name : F:\Безопасность (Safe). Сериал. 2018. LostFilm (WEB 1080p)\safe.s01e01. Эпизод 1.mkv
Format : Matroska
Format version : Version 2
File size : 1.43 GiB
Duration : 41 min 1 s
Overall bit rate mode : Variable
Overall bit rate : 4 975 kb/s
Movie name : Episode 1
Encoded date : UTC 2018-05-15 13:04:30
Writing application : mkvmerge v7.8.0 ('River Man') 32bit built on Apr 3 2015 12:11:22
Writing library : libebml v1.3.1 + libmatroska v1.4.2

Video
ID : 1
Format : AVC
Format/Info : Advanced Video Codec
Format profile : Main@L4
Format settings : CABAC / 3 Ref Frames
Format settings, CABAC : Yes
Format settings, RefFrames : 3 frames
Codec ID : V_MPEG4/ISO/AVC
Duration : 41 min 1 s
Bit rate mode : Variable
Bit rate : 4 220 kb/s
Maximum bit rate : 6 330 kb/s
Width : 1 920 pixels
Height : 1 080 pixels
Display aspect ratio : 16:9
Frame rate mode : Constant
Frame rate : 25.000 FPS
Color space : YUV
Chroma subsampling : 4:2:0
Bit depth : 8 bits
Scan type : Progressive
Bits/(Pixel*Frame) : 0.081
Stream size : 1.18 GiB (83%)
Writing library : x264 core 148 r2715 7e75228
Encoding settings : cabac=1 / ref=3 / deblock=1:0:0 / analyse=0x1:0x111 / me=umh / subme=10 / psy=1 / psy_rd=1.00:0.00 / mixed_ref=1 / me_range=24 / chroma_me=1 / trellis=2 / 8x8dct=0 / cqm=0 / deadzone=21,11 / fast_pskip=1 / chroma_qp_offset=-2 / threads=8 / lookahead_threads=1 / sliced_threads=0 / nr=0 / decimate=1 / interlaced=0 / bluray_compat=0 / stitchable=1 / constrained_intra=0 / bframes=2 / b_pyramid=0 / b_adapt=2 / b_bias=0 / direct=3 / weightb=1 / open_gop=0 / weightp=2 / keyint=50 / keyint_min=26 / scenecut=0 / intra_refresh=0 / rc_lookahead=50 / rc=2pass / mbtree=1 / bitrate=4220 / ratetol=1.0 / qcomp=0.50 / qpmin=6 / qpmax=51 / qpstep=4 / cplxblur=20.0 / qblur=0.5 / vbv_maxrate=6330 / vbv_bufsize=8440 / nal_hrd=vbr / filler=0 / ip_ratio=1.40 / aq=1:1.00
Language : English
Default : Yes
Forced : No

Audio #1
ID : 2
Format : AC-3
Format/Info : Audio Coding 3
Format settings, Endianness : Big
Codec ID : A_AC3
Duration : 41 min 1 s
Bit rate mode : Constant
Bit rate : 384 kb/s
Channel(s) : 6 channels
Channel positions : Front: L C R, Side: L R, LFE
Sampling rate : 48.0 kHz
Frame rate : 31.250 FPS (1536 SPF)
Bit depth : 16 bits
Compression mode : Lossy
Stream size : 113 MiB (8%)
Language : Russian
Service kind : Complete Main
Default : Yes
Forced : No

Audio #2
ID : 3
Format : AC-3
Format/Info : Audio Coding 3
Format settings, Endianness : Big
Codec ID : A_AC3
Duration : 41 min 1 s
Bit rate mode : Constant
Bit rate : 384 kb/s
Channel(s) : 6 channels
Channel positions : Front: L C R, Side: L R, LFE
Sampling rate : 48.0 kHz
Frame rate : 31.250 FPS (1536 SPF)
Bit depth : 16 bits
Compression mode : Lossy
Stream size : 113 MiB (8%)
Language : English
Service kind : Complete Main
Default : No
Forced : No

Text #1
ID : 4
Format : UTF-8
Codec ID : S_TEXT/UTF8
Codec ID/Info : UTF-8 Plain Text
Title : Forced
Language : English
Default : No
Forced : No

Text #2
ID : 5
Format : UTF-8
Codec ID : S_TEXT/UTF8
Codec ID/Info : UTF-8 Plain Text
Language : English
Default : No
Forced : No
Внимание! Раздача ведётся путём добавления новых серий; при каждом добавлении создаётся новый торрент. Чтобы начать докачку новой серии, пользователям необходимо сделать следующее:
(1) остановить скачивание,
(2) удалить старый торрент у себя из клиента (старые серии удалять не надо),
(3) скачать новый торрент и запустить его у себя в клиенте вместо старого, при этом указать клиенту путь в старую папку куда и должно происходить скачивание новых серий.

Ваш клиент при этом должен произвести хеширование (проверку) старой папки (если не производит сам - помогите ему сделать это), и будет докачивать только те серии которых у вас ещё нет. Старые серии при этом не удаляются, а продолжают раздаваться!

Eсли вы уже удалили старые серии, то предотвратить повторную закачку старых серий можно, отжав галочку в соответствующих местах при запуске нового торрента. По возможности, желательно не удалять старые серии как можно дольше чтобы релизёр не столько продолжал раздавать старые серии, а смог сконцентрироваться на новых.



Скачать Безопасность.Safe.(Сезон.01).(Джулия.Форд.Дэниэл.О’Хара.Дэниэл.Неттхейм).[2018.Драма.триллер.WEBRip].[1080p].[MVO].(LostFilm).torrent без регистрации
Золото ЗОЛОТАЯ РАЗДАЧА! СКАЧАННОЕ НЕ ЗАСЧИТЫВАЕТСЯ! Золото
Дата: Зарегистрирован   [ Тип: внутренний ] Как тут cкачать?
MAGNET ссылка
MAGNET ссылка


Скачать .torrent

30 KB

Статус: проверено DHT
Скачан: торрент - 138 раз, раздача полностью - 7 раз
Размер: 11,09 GB
Оценка:  - (Голосов: 0)
Поблагодарили: 0
Поделиться ссылкой на эту раздачу с друзьями:
В контактеFacebookОдноклассникиTwitterLivejournalМой МирLiveinternet
 

 
Показать сообщения:    


Вы не можете начинать темы
Вы не можете отвечать на сообщения
Вы не можете редактировать свои сообщения
Вы не можете удалять свои сообщения
Вы не можете голосовать в опросах
Вы не можете прикреплять файлы к сообщениям
Вы можете скачивать файлы