Loading...
Error

Скачать В августе 44-го (Михаил Пташук) [2001, военный, боевик, драма, экранизация, HDTVRip-AVC] [Оригинал Rus] торрент без регистрации

Статистика раздачи
Размер:  3,12 GB   |    Скачан:  62 раза
Сидов:  5  [  0 KB/s  ]  
 
 
 
Автор Сообщение

Marsianka

[] 

Информация о фильме
Название: В августе 44-го
Год выхода: 2001
Жанр: военный, боевик, драма, экранизация
Режиссёр: Михаил Пташук
В ролях: Евгений Миронов, Владислав Галкин, Юрий Колокольников, Алексей Петренко, Беата Тышкевич, Александр Феклистов, Александр Балуев, Рамаз Чхиквадзе, Ярослав Бойко, Анджей Печински, Каролина Грушка, Виктор Павлов, Альберт Филозов, Александр Лабуш, Алексей Панин, Константин Соловьёв, Юрий Цурило, Иван Лешук, Сергей Кравец, Радослав Пазура, Александр Ефимов, Юрий Пристром, Татьяна Говорова, Анна Казючиц, Анатолий Кот, Алексей Макаров

Описание: По мотивам романа Владимира Богомолова "Момент истины" о работе контраззведки СМЕРШ в годы войны на только что освобожденной от фашистов территории. События происходят в августе 1944 года. На территории уже освобожденной Белоруссии действуют агенты противника. Регулярно с территории республики в эфир выходит шпионская диверсионная группа, которая остается неуловимой и передает шифрованные радиограммы. Так возникает дело военной контрразведки "Неман", главную роль в котором предстоит сыграть капитану Алёхину и его оперативной группе.



Страна: Россия, Беларусь
Студия: Беларусьфильм
Продолжительность: 01:43:05
Перевод: Не требуется

Файл
Качество: HDTVRip-AVC
Видео: MPEG-4 AVC, 1076x648, 25.000 fps, 4055 kbps
Аудио: Russian: AС3, 2 ch, 192 Kbps
Субтитры: Нет

Релиз от:
Общее
Уникальный идентификатор : 192836717408827461203936773036340637131 (0x911300374794FEB9995E3A5ABFAB6DCB)
Полное имя : В августе 44-го_2001_HDTVRip-AVC_KORSAR.mkv
Формат : Matroska
Версия формата : Version 2
Размер файла : 3,12 Гбайт
Продолжительность : 1 ч. 43 м.
Общий поток : 4333 Кбит/сек
Название фильма : В августе 44-го_2001_HDTVRip-AVC_KORSAR
Дата кодирования : UTC 2018-05-14 13:25:38
Программа кодирования : mkvmerge v5.8.0 ('No Sleep / Pillow') built on Sep 2 2012 15:37:04
Библиотека кодирования : libebml v1.2.3 + libmatroska v1.3.0

Видео
Идентификатор : 1
Формат : AVC
Формат/Информация : Advanced Video Codec
Профиль формата : High@L4.1
Параметр CABAC формата : Да
Параметр RefFrames формата : 11 кадров
Идентификатор кодека : V_MPEG4/ISO/AVC
Продолжительность : 1 ч. 43 м.
Битрейт : 4055 Кбит/сек
Ширина : 1076 пикселей
Высота : 648 пикселей
Соотношение сторон : 5:3
Режим частоты кадров : Постоянный
Частота кадров : 25,000 кадров/сек
Цветовое пространство : YUV
Субдискретизация насыщенности : 4:2:0
Битовая глубина : 8 бит
Тип развёртки : Прогрессивная
Бит/(Пиксели*Кадры) : 0.233
Размер потока : 2,92 Гбайт (94%)
Библиотека кодирования : x264 core 152 r2851kMod ba24899
Настройки программы : cabac=1 / ref=11 / deblock=1:-2:-1 / analyse=0x3:0x113 / me=umh / subme=10 / psy=1 / fade_compensate=0.00 / psy_rd=1.05:0.12 / mixed_ref=1 / me_range=40 / chroma_me=1 / trellis=2 / 8x8dct=1 / cqm=0 / deadzone=21,11 / fast_pskip=1 / chroma_qp_offset=-3 / threads=12 / lookahead_threads=2 / sliced_threads=0 / nr=0 / decimate=1 / interlaced=0 / bluray_compat=0 / constrained_intra=0 / bframes=9 / b_pyramid=2 / b_adapt=2 / b_bias=0 / direct=1 / weightb=1 / open_gop=0 / weightp=2 / keyint=250 / keyint_min=25 / scenecut=40 / intra_refresh=0 / rc=crf / mbtree=0 / crf=18.0000 / qcomp=0.63 / qpmin=0 / qpmax=39 / qpstep=4 / ip_ratio=1.40 / pb_ratio=1.30 / aq=2:0.90
Язык : English
Default : Да
Forced : Нет
Цветовой диапазон : Limited
Основные цвета : BT.709
Характеристики трансфера : BT.709
Коэффициенты матрицы : BT.709

Аудио
Идентификатор : 2
Формат : AC-3
Формат/Информация : Audio Coding 3
Параметр Endianness формата : Big
Идентификатор кодека : A_AC3
Продолжительность : 1 ч. 43 м.
Вид битрейта : Постоянный
Битрейт : 192 Кбит/сек
Каналы : 2 канала
Расположение каналов : Front: L R
Частота : 48,0 КГц
Частота кадров : 31,250 кадров/сек (1536 SPF)
Битовая глубина : 16 бит
Метод сжатия : С потерями
Задержка видео : 24 мс.
Размер потока : 142 Мбайт (4%)
Язык : Russian
Default : Да
Forced : Нет



Скачать В.августе.44-го.(Михаил.Пташук).[2001.военный.боевик.драма.экранизация.HDTVRip-AVC].[Оригинал.Rus].torrent без регистрации
Золото ЗОЛОТАЯ РАЗДАЧА! СКАЧАННОЕ НЕ ЗАСЧИТЫВАЕТСЯ! Золото
Дата: Зарегистрирован   [ Тип: внешний ] Как тут cкачать?
MAGNET ссылка
MAGNET ссылка


Скачать .torrent

17 KB

Статус: проверено DHT
Скачан: торрент - 62 раз, раздача полностью - 10 раз
Размер: 3,12 GB
Оценка:  - (Голосов: 0)
Поблагодарили: 2
Поделиться ссылкой на эту раздачу с друзьями:
В контактеFacebookОдноклассникиTwitterLivejournalМой МирLiveinternet
 

 
Показать сообщения:    


Вы не можете начинать темы
Вы не можете отвечать на сообщения
Вы не можете редактировать свои сообщения
Вы не можете удалять свои сообщения
Вы не можете голосовать в опросах
Вы не можете прикреплять файлы к сообщениям
Вы можете скачивать файлы