Loading...
Error

Скачать Фунт плоти / Pound Of Flesh (Эрни Барбараш) [2015, боевик, криминал, BDRip] [1080p] [DVO (ColdFilm)] [R.G. Goldenshara] торрент без регистрации

Статистика раздачи
Размер:  4,37 GB   |    Скачан:  124 раза
Сидов:  2  [  0 KB/s  ]  
 
 
 
Автор Сообщение

sobmaster

[] 



Фунт плоти
Pound Of Flesh




Год выпуска: 2015
Страна: Канада
Выпущено: ACE Film Company, Ace Studios, Odyssey Media
Жанр: боевик, криминал

Продолжительность: 01:21:33
Перевод: Любительский (двухголосый, закадровый) (ColdFilm)
Режиссер: Эрни Барбараш
Сценарий: Джошуа Джеймс
Продюсер: Аки Алеонг, Генри Люк, Алехандре Коскас
Оператор: Клифф Хокансон
Композитор: Пол Майкл Томас
Художник: Рэйчел Ли Пэйн Дарроу, Гарри Ду Янг
Монтаж: Азим Нурани
В ролях:


Жан-Клод Ван Дамм (Deacon Lyle), Джон Ралстон (George Lyle), Аки Алеонг (Kung), Шарлотта Питерс (Ana), Даррен Шалави (Drake), Брахим Ачаббаке (Nardo), Марша Юань (Bette), Аделе Бохэн (Isabella), Тересе Шафи (Connie), Джейсон Дж. Тобин (Liam), Эндрю Нг (Father Fong), Филипп Жоли (Zoltan), Дэн Цзыи (Taxi Driver), Кэрри Ван (TF Boy #1), Рой Ван (TF Boy #2), Джексон И (TF Boy #3)
Бюджет: $7 500 000
Мировая премьера: 23 марта 2015
MPAA: - Лицам до 17 лет обязательно присутствие взрослого

Описание: Захватывающая история начинается с того, что любимая племянница Дикона серьезно больна. У нее отказала почка и он идеально подходит для донорства. Бывший секретный агент отправляется в Китай. Незадолго до операции, он становится невольным свидетелем покушения на неизвестную женщину. Но на следующее утро просыпается в номере отеля и обнаруживает, что лежит в ванной весь в крови и без одной почки. Отчаянный боец знает, что делать: он найдет воров и жестоко покарает их всех...


Качество: BDRip 1080p
Контейнер: MKV
Видео: AVC, 1920x1080 (16:9), 5609 kbps, 23.976 fps, 0.113 bpp
Аудио: русский /; AC3 /; 2.0 /; 48 kHz /; 384 kbps /; 16 bit; ||
Субтитры #1: русские
Субтитры #2: английские
Навигация по главам: есть

АНОНСЫ ПОПУЛЯРНЫХ РАЗДАЧ


Код:

General
Unique ID                                : 180444933680757042882179126814212712037 (0x87C06E1B9D7B10C2AACDCC1944AD6665)
Complete name                            : E:\Мои рипы\Фунт плоти.2015.BDRip.1080p.DVO.mkv
Format                                   : Matroska
Format version                           : Version 4 / Version 2
File size                                : 4.37 GiB
Duration                                 : 1h 44mn
Overall bit rate                         : 5 996 Kbps
Movie name                               : Pound of Flesh. 2015. BDRemux. 1080p - ylnian
Encoded date                             : UTC 2018-05-18 04:26:00
Writing application                      : mkvmerge v6.8.0 ('Theme for Great Cities') 32bit built on Mar  2 2014 21:27:07
Writing library                          : libebml v1.3.0 + libmatroska v1.4.1

Video
ID                                       : 1
Format                                   : AVC
Format/Info                              : Advanced Video Codec
Format profile                           : High@L4.1
Format settings, CABAC                   : Yes
Format settings, ReFrames                : 4 frames
Codec ID                                 : V_MPEG4/ISO/AVC
Duration                                 : 1h 44mn
Bit rate                                 : 5 609 Kbps
Width                                    : 1 920 pixels
Height                                   : 1 080 pixels
Display aspect ratio                     : 16:9
Frame rate mode                          : Constant
Frame rate                               : 23.976 fps
Color space                              : YUV
Chroma subsampling                       : 4:2:0
Bit depth                                : 8 bits
Scan type                                : Progressive
Bits/(Pixel*Frame)                       : 0.113
Stream size                              : 4.01 GiB (92%)
Writing library                          : x264 core 130 r2273 b3065e6
Encoding settings                        : cabac=1 / ref=4 / deblock=1:-3:-3 / analyse=0x3:0x113 / me=umh / subme=11 / psy=1 / psy_rd=1.00:0.15 / mixed_ref=1 / me_range=48 / chroma_me=1 / trellis=2 / 8x8dct=1 / cqm=0 / deadzone=21,11 / fast_pskip=0 / chroma_qp_offset=-4 / threads=6 / lookahead_threads=1 / sliced_threads=0 / nr=0 / decimate=0 / interlaced=0 / bluray_compat=0 / constrained_intra=0 / bframes=8 / b_pyramid=2 / b_adapt=2 / b_bias=0 / direct=2 / weightb=1 / open_gop=0 / weightp=2 / keyint=250 / keyint_min=23 / scenecut=40 / intra_refresh=0 / rc=2pass / mbtree=0 / bitrate=5609 / ratetol=1.0 / qcomp=0.60 / qpmin=0 / qpmax=69 / qpstep=4 / cplxblur=20.0 / qblur=0.5 / ip_ratio=1.40 / pb_ratio=1.30 / aq=2:1.00
Language                                 : English
Default                                  : Yes
Forced                                   : No
Color primaries                          : Generic film
Matrix coefficients                      : YCgCo

Audio
ID                                       : 2
Format                                   : AC-3
Format/Info                              : Audio Coding 3
Mode extension                           : CM (complete main)
Format settings, Endianness              : Big
Codec ID                                 : A_AC3
Duration                                 : 1h 44mn
Bit rate mode                            : Constant
Bit rate                                 : 384 Kbps
Channel(s)                               : 2 channels
Channel positions                        : Front: L R
Sampling rate                            : 48.0 KHz
Bit depth                                : 16 bits
Compression mode                         : Lossy
Stream size                              : 287 MiB (6%)
Title                                    : DVO (AC3 2.0 384 kbps)
Language                                 : Russian
Default                                  : Yes
Forced                                   : No

Text #1
ID                                       : 3
Format                                   : UTF-8
Codec ID                                 : S_TEXT/UTF8
Codec ID/Info                            : UTF-8 Plain Text
Language                                 : Russian
Default                                  : No
Forced                                   : No

Text #2
ID                                       : 4
Format                                   : UTF-8
Codec ID                                 : S_TEXT/UTF8
Codec ID/Info                            : UTF-8 Plain Text
Language                                 : English
Default                                  : No
Forced                                   : No

Menu
00:00:00.000                             : en:00:00:00.000
00:07:08.762                             : en:00:07:08.762
00:12:44.555                             : en:00:12:44.555
00:26:53.654                             : en:00:26:53.654
00:31:38.772                             : en:00:31:38.772
00:43:34.987                             : en:00:43:34.987
00:53:56.358                             : en:00:53:56.358
01:03:47.782                             : en:01:03:47.782
01:14:44.397                             : en:01:14:44.397
01:23:51.985                             : en:01:23:51.985
01:34:51.811                             : en:01:34:51.811
01:39:59.118                             : en:01:39:59.118






Скачать Фунт.плоти.Pound.Of.Flesh.(Эрни.Барбараш).[2015.боевик.криминал.BDRip].[1080p].[DVO.(ColdFilm)].[R.G.Goldenshara].torrent без регистрации
Золото ЗОЛОТАЯ РАЗДАЧА! СКАЧАННОЕ НЕ ЗАСЧИТЫВАЕТСЯ! Золото
Дата: Зарегистрирован   [ Тип: внутренний ] Как тут cкачать?
MAGNET ссылка
MAGNET ссылка


Скачать .torrent

11 KB

Статус: проверено DHT
Скачан: торрент - 124 раз, раздача полностью - 24 раз
Размер: 4,37 GB
Оценка:  5 (Голосов: 2)
Поблагодарили: 6
Поделиться ссылкой на эту раздачу с друзьями:
В контактеFacebookОдноклассникиTwitterLivejournalМой МирLiveinternet
 

 
Показать сообщения:    


Вы не можете начинать темы
Вы не можете отвечать на сообщения
Вы не можете редактировать свои сообщения
Вы не можете удалять свои сообщения
Вы не можете голосовать в опросах
Вы не можете прикреплять файлы к сообщениям
Вы можете скачивать файлы