Loading...
Error

Скачать 451 градус по Фаренгейту / Fahrenheit 451 (Фантастика, Драма) [2018, Фантастика, Драма, WEB-DL] [1080p] [MVO] (Amedia) торрент без регистрации

Статистика раздачи
Размер:  7,1 GB   |    Скачан:  220 раз
Сидов:  8  [  8 KB/s  ]  
 
 
 
Автор Сообщение

leon030982

[] 

Информация о фильме

Название: 451 градус по Фаренгейту
Оригинальное название: Fahrenheit 451

Год выхода: 2018
Жанр: Фантастика, Драма
Страна: США
Студия: HBO Films
Продолжительность: 01:40:14
Перевод: Профессиональный (многоголосый, закадровый) | Amedia


Режиссер: Рамин Бахрани

В ролях: Майкл Б. Джордан, София Бутелла, Майкл Шеннон, Кир Дуллеа, Кэнди Александр, Мартин Донован, Лилли Сингх, Мэйко Нгуйен, Джо Пинг, Грэйс Линн Кунг

О фильме:
В некоем тоталитарном обществе история переписывается, книги безжалостно сжигаются, а их чтение преследуется по закону.

После встречи с юной Клариссой «пожарный» Гай Монтэг меняет свои убеждения и начинает противостоять суровому брандмейстеру Битти.



Файл

Кодек: H.264
Качество: WEB-DL 1080p | P
Видео: AVC/H.264, 1920x1080, ~9315 kbps, 23.976 fps
Звук:
Аудио 1: AC3, 2 ch, 192 Kbps - Русский
Аудио 2: E-AC3, 6 ch, 640 Kbps - Английский
Субтитры: Русские, английские
Общее

Уникальный идентификатор : 45014833980690289498088976698045390329 (0x21DD8AAAEB083D2357F40AEC25705DF9)

Полное имя : Fahrenheit_451.2018.WEB-DL.1080p.mkv

Формат : Matroska

Версия формата : Version 4 / Version 2

Размер файла : 7,10 Гбайт

Продолжительность : 1 ч. 40 м.

Общий поток : 10,1 Мбит/сек

Дата кодирования : UTC 2018-05-20 23:33:25

Программа кодирования : mkvmerge v23.0.0 ('The Bride Said No') 64-bit

Библиотека кодирования : libebml v1.3.6 + libmatroska v1.4.9

Видео

Идентификатор : 1

Формат : AVC

Формат/Информация : Advanced Video Codec

Профиль формата : High@L4

Настройки формата : CABAC / 4 Ref Frames

Параметр CABAC формата : Да

Параметр RefFrames формата : 4 кадра

Идентификатор кодека : V_MPEG4/ISO/AVC

Продолжительность : 1 ч. 40 м.

Битрейт : 9315 Кбит/сек

Ширина : 1920 пикселей

Высота : 1080 пикселей

Соотношение сторон : 16:9

Режим частоты кадров : Постоянный

Частота кадров : 23,976 (24000/1001) кадра/сек

Цветовое пространство : YUV

Субдискретизация насыщенности : 4:2:0

Битовая глубина : 8 бит

Тип развёртки : Прогрессивная

Бит/(Пиксели*Кадры) : 0.187

Размер потока : 6,52 Гбайт (92%)

Язык : English

Default : Да

Forced : Нет

Цветовой диапазон : Limited

Основные цвета : BT.709

Характеристики трансфера : BT.709

Коэффициенты матрицы : BT.709

Аудио #1

Идентификатор : 2

Формат : AC-3

Формат/Информация : Audio Coding 3

Идентификатор кодека : A_AC3

Продолжительность : 1 ч. 38 м.

Вид битрейта : Постоянный

Битрейт : 192 Кбит/сек

Каналы : 2 канала

Расположение каналов : Front: L R

Частота : 48,0 КГц

Частота кадров : 31,250 кадров/сек (1536 SPF)

Битовая глубина : 16 бит

Метод сжатия : С потерями

Размер потока : 135 Мбайт (2%)

Заголовок : MVO (Amedia)

Язык : Russian

ServiceKind : Complete Main

Default : Да

Forced : Нет

Аудио #2

Идентификатор : 3

Формат : E-AC-3

Формат/Информация : Enhanced Audio Coding 3

Идентификатор кодека : A_EAC3

Продолжительность : 1 ч. 40 м.

Вид битрейта : Постоянный

Битрейт : 640 Кбит/сек

Каналы : 6 каналов

Расположение каналов : Front: L C R, Side: L R, LFE

Частота : 48,0 КГц

Частота кадров : 187,500 кадров/сек (256 SPF)

Метод сжатия : С потерями

Задержка видео : 16 мс.

Размер потока : 459 Мбайт (6%)

Язык : English

ServiceKind : Complete Main

Default : Нет

Forced : Нет

Текст #1

Идентификатор : 4

Формат : UTF-8

Идентификатор кодека : S_TEXT/UTF8

Идентификатор кодека/Информация : UTF-8 Plain Text

Продолжительность : 1 ч. 34 м.

Битрейт : 73 бит/сек

ElementCount : 1057

Размер потока : 51,1 Кбайт (0%)

Язык : Russian

Default : Нет

Forced : Нет

Текст #2

Идентификатор : 5

Формат : UTF-8

Идентификатор кодека : S_TEXT/UTF8

Идентификатор кодека/Информация : UTF-8 Plain Text

Продолжительность : 1 ч. 32 м.

Битрейт : 49 бит/сек

ElementCount : 1072

Размер потока : 33,8 Кбайт (0%)

Язык : English

Default : Нет

Forced : Нет

Текст #3

Идентификатор : 6

Формат : UTF-8

Идентификатор кодека : S_TEXT/UTF8

Идентификатор кодека/Информация : UTF-8 Plain Text

Продолжительность : 1 ч. 34 м.

Битрейт : 52 бит/сек

ElementCount : 1176

Размер потока : 36,7 Кбайт (0%)

Заголовок : SDH

Язык : English

Default : Нет

Forced : Нет



Скачать 451.градус.по.Фаренгейту.Fahrenheit.451.(Фантастика.Драма).[2018.Фантастика.Драма.WEB-DL].[1080p].[MVO].(Amedia).torrent без регистрации
Золото ЗОЛОТАЯ РАЗДАЧА! СКАЧАННОЕ НЕ ЗАСЧИТЫВАЕТСЯ! Золото
Дата: Зарегистрирован   [ Тип: внутренний ] Как тут cкачать?
MAGNET ссылка
MAGNET ссылка


Скачать .torrent

36 KB

Статус: проверено DHT
Скачан: торрент - 220 раз, раздача полностью - 311 раз
Размер: 7,1 GB
Оценка:  5 (Голосов: 3)
Поблагодарили: 12
Поделиться ссылкой на эту раздачу с друзьями:
В контактеFacebookОдноклассникиTwitterLivejournalМой МирLiveinternet
 

 

yakut

[] 

leon030982
Спасибо за работу!!! az
 

leon030982

[] 

yakut писал(а):

leon030982
Спасибо за работу!!! az
Всегда пожалуйста az
 
Показать сообщения:    


Вы не можете начинать темы
Вы не можете отвечать на сообщения
Вы не можете редактировать свои сообщения
Вы не можете удалять свои сообщения
Вы не можете голосовать в опросах
Вы не можете прикреплять файлы к сообщениям
Вы можете скачивать файлы