Loading...
Error

Скачать Гений: Пикассо / Genius: Picasso / Сезон: 2 / Серии: 1-8 из 10 (Кеннет Биллер, Джеймс Хоуз, Кевин Хукс) [2018, Драма, биография, история, WEB-DLRip] [MVO] (NG) торрент без регистрации

Статистика раздачи
Размер:  6,2 GB   |    Скачан:  67 раз
Сидов:  1  [  0 KB/s  ]  
 
 
 
Автор Сообщение

leon030982

[] 

Гений: Пикассо / Genius: Picasso


Год выпуска: 2018
Страна: США
Жанр: Драма, биография, история
Продолжительность: ~ 00:50:00
Перевод: Профессиональный (многоголосый закадровый)NG

Режиссёр: Кеннет Биллер, Джеймс Хоуз, Кевин Хукс

В ролях: Антонио Бандерас, Максимилиан Бефорт, Поппи Делевинь, Эшлинг Франчози, Клеманс Поэзи, Алекс Рич, Себастьян Роше, Андреа Скардуцио, Роберт Шиэн, Маркус фон Линген

Описание:
Он был многоаспектным творцом, чьи творения невозможно классифицировать и подогнать под принятые стандарты. Двадцатый век часто называют эпохой разрушения границ, и он был одним из тех, кто их разрушал, перестраивал под себя, создавая собственную систему координат. Являясь основоположником кубизма, он не боялся экспериментировать в любом направлении, принося что-то свое, будь то скульптура или живопись. Создав из своего имени бренд, он тщательно работал над ним, окружая себя тайнами и загадками. Все это привело к тому, что уже после смерти, он был признан самым дорогим художником в истории, чьи полотна продаются за сотни миллионов долларов с аукционов. Этот сериал - не только рассказ об одаренном провокаторе, а еще и о том, как, благодаря таким талантливым людям как он, изобразительное искусство видоизменялось и трансформировалось, становясь все более необычным и экзотичным.



Качество: WEB-DLRip
Формат: AVI
Видео: XviD, ~ 1900 Кбит/с, 720x368, 25.000 FPS
Аудио 1: Russian, AC3, 48 kHz, 2 ch, 192 kbps
Аудио 2: English, AC3, 48 kHz, 2 ch, 192 kbps
Субтитры: нет
General
Complete name : E:\Гений.Пикассо.2018.XviD.WEB-DLRip.alf62\Гений.Пикассо.05.серия.2018.XviD.WEB-DLRip.alf62.avi
Format : AVI
Format/Info : Audio Video Interleave
File size : 810 MiB
Duration : 49 min 4 s
Overall bit rate : 2 307 kb/s
Writing application : VirtualDubModRus 1.5.10.2 (build 2542/release)
Writing library : VirtualDubMod build 2542/release

Video
ID : 0
Format : MPEG-4 Visual
Format profile : Advanced Simple@L5
Format settings : BVOP2
Format settings, BVOP : 2
Format settings, QPel : No
Format settings, GMC : No warppoints
Format settings, Matrix : Default (MPEG)
Codec ID : XVID
Codec ID/Hint : XviD
Duration : 49 min 4 s
Bit rate : 1 820 kb/s
Width : 720 pixels
Height : 368 pixels
Display aspect ratio : 1.957
Frame rate : 25.000 FPS
Color space : YUV
Chroma subsampling : 4:2:0
Bit depth : 8 bits
Scan type : Progressive
Compression mode : Lossy
Bits/(Pixel*Frame) : 0.275
Stream size : 639 MiB (79%)
Writing library : XviD 73

Audio #1
ID : 1
Format : AC-3
Format/Info : Audio Coding 3
Format settings, Endianness : Big
Codec ID : 2000
Duration : 49 min 4 s
Bit rate mode : Constant
Bit rate : 192 kb/s
Channel(s) : 2 channels
Channel positions : Front: L R
Sampling rate : 48.0 kHz
Frame rate : 31.250 FPS (1536 SPF)
Bit depth : 16 bits
Compression mode : Lossy
Stream size : 67.4 MiB (8%)
Alignment : Split accross interleaves
Service kind : Complete Main

Audio #2
ID : 2
Format : AC-3
Format/Info : Audio Coding 3
Format settings, Endianness : Big
Codec ID : 2000
Duration : 49 min 4 s
Bit rate mode : Constant
Bit rate : 192 kb/s
Channel(s) : 2 channels
Channel positions : Front: L R
Sampling rate : 48.0 kHz
Frame rate : 31.250 FPS (1536 SPF)
Bit depth : 16 bits
Compression mode : Lossy
Stream size : 67.4 MiB (8%)
Alignment : Split accross interleaves
Service kind : Complete Main
Внимание! Раздача ведётся путём добавления новых серий; при каждом добавлении создаётся новый торрент. Чтобы начать докачку новой серии, пользователям необходимо сделать следующее:
(1) остановить скачивание,
(2) удалить старый торрент у себя из клиента (старые серии удалять не надо),
(3) скачать новый торрент и запустить его у себя в клиенте вместо старого, при этом указать клиенту путь в старую папку куда и должно происходить скачивание новых серий.

Ваш клиент при этом должен произвести хеширование (проверку) старой папки (если не производит сам - помогите ему сделать это), и будет докачивать только те серии которых у вас ещё нет. Старые серии при этом не удаляются, а продолжают раздаваться!

Eсли вы уже удалили старые серии, то предотвратить повторную закачку старых серий можно, отжав галочку в соответствующих местах при запуске нового торрента. По возможности, желательно не удалять старые серии как можно дольше чтобы релизёр не столько продолжал раздавать старые серии, а смог сконцентрироваться на новых.



Скачать Гений.Пикассо.Genius.Picasso.Сезон.2.Серии.1-8.из.10.(Кеннет.Биллер.Джеймс.Хоуз.Кевин.Хукс).[2018.Драма.биография.история.WEB-DLRip].[MVO].(NG).torrent без регистрации
Золото ЗОЛОТАЯ РАЗДАЧА! СКАЧАННОЕ НЕ ЗАСЧИТЫВАЕТСЯ! Золото
Дата: Зарегистрирован   [ Тип: внутренний ] Как тут cкачать?
MAGNET ссылка
MAGNET ссылка


Скачать .torrent

17 KB

Статус: проверено DHT
Скачан: торрент - 67 раз, раздача полностью - 1 раз
Размер: 6,2 GB
Оценка:  - (Голосов: 0)
Поблагодарили: 0
Поделиться ссылкой на эту раздачу с друзьями:
В контактеFacebookОдноклассникиTwitterLivejournalМой МирLiveinternet
 

 
Показать сообщения:    


Вы не можете начинать темы
Вы не можете отвечать на сообщения
Вы не можете редактировать свои сообщения
Вы не можете удалять свои сообщения
Вы не можете голосовать в опросах
Вы не можете прикреплять файлы к сообщениям
Вы можете скачивать файлы