Loading...
Error

Скачать Отражение (Разбитое зеркало) / The Broken (Шон Эллис) [2008, ужасы, триллер, драма, BDRip] [1080p] [Dub] [R.G. Goldenshara] торрент без регистрации

Статистика раздачи
Размер:  4,37 GB   |    Скачан:  77 раз
Сидов:  2  [  0 KB/s  ]  
 
 
 
Автор Сообщение

sobmaster

[] 



Отражение (Разбитое зеркало)
The Broken




Год выпуска: 2008
Страна: Великобритания , Франция
Выпущено: Gaumont International, Left Turn Films, Thriller, Ugly Duckling Films
Слоган: «What lies behind a mirror?»
Жанр: ужасы, триллер, драма

Продолжительность: 01:28:00
Перевод: Профессиональный (полное дублирование)
Режиссер: Шон Эллис
Сценарий: Шон Эллис
Продюсер: Лене Босейджер, Ив Шевалье, Франк Шоро
Оператор: Энгус Хадсон
Композитор: Гай Фарли
Художник: Морган Кеннеди, Герард Брайан, Виктория Расселл
Монтаж: Скотт Томас
В ролях:


Лина Хиди (Gina McVey), Ульрих Томсен (Dr. Robert Zachman), Мельвиль Пупо (Stefan Chambers), Мишель Дункан (Kate Coleman), Асьер Ньюман (Daniel McVey), Ричард Дженкинс (John McVey), Дарен Эллиот Холмс (Simon the Garage Manager), Ховард Уорд (Jim), Дэмиан О’Хейр (Anthony), Дэннис Бэнкс (Doorman), Ин-Сук Чаппель (Crash Nurse), Уильям Армстронг (Dr. Kenric), Эндрю Хавилл (Dr. Myers), Лобо Чан (Harry Lee), Тара Хьюго (Mary)
Роли дублировали: Любовь Германова (Gina McVey), Радик Мухаметзянов (Dr. Robert Zachman), Василий Дахненко (Stefan Chambers), Игорь Старосельцев (John McVey), Андрей Чижов, Никита Прозоровский (Dr. Kenric)
Бюджет: £4 000 000
Сборы в России: $799 041
Зрители: Россия 110.8 тыс.
Мировая премьера: 18 января 2008
Премьера (РФ): 10 декабря 2009, «Люксор»
Релиз на DVD: 28 января 2010, «Columbia/Sony»
MPAA: - Лицам до 17 лет обязательно присутствие взрослого

Описание: Когда за праздничным ужином разбилось старое зеркало, привычный мир Джины рухнул. Возвращаясь на следующий день домой, она вдруг увидела себя в своей машине. Потрясенная этим, она следует за загадочной незнакомкой до её дома… С этого момента вся жизнь Джины поставлена под сомнение. Мир, в который она попадает, намного страшнее ночных кошмаров.


Качество: BDRip 1080p
Контейнер: MKV
Видео: AVC, 1920x816 (2.35:1), 6664 kbps, 24.000 fps, 0.177 bpp
Аудио: русский /; AC3 /; 5.1 /; 48 kHz /; 448 kbps /; 16 bit; ||
Субтитры: английские

АНОНСЫ ПОПУЛЯРНЫХ РАЗДАЧ


Код:

General
Unique ID                   : 245692362395922559366580791425724133973 (0xB8D6A0B67D13AF53B39CB70A3D393255)
Complete name               : E:\Мои рипы\Отражение.2008.BDRip.1080p.DUB.mkv
Format                      : Matroska
Format version              : Version 4 / Version 2
File size                   : 4.37 GiB
Duration                    : 1 h 28 min
Overall bit rate            : 7 111 kb/s
Encoded date                : UTC 2018-05-22 17:32:14
Writing application         : mkvmerge v6.8.0 ('Theme for Great Cities') 32bit built on Mar  2 2014 21:27:07
Writing library             : libebml v1.3.0 + libmatroska v1.4.1

Video
ID                          : 1
Format                      : AVC
Format/Info                 : Advanced Video Codec
Format profile              : High@L4.1
Format settings             : CABAC / 5 Ref Frames
Format settings, CABAC      : Yes
Format settings, ReFrames   : 5 frames
Codec ID                    : V_MPEG4/ISO/AVC
Duration                    : 1 h 28 min
Bit rate                    : 6 664 kb/s
Width                       : 1 920 pixels
Height                      : 816 pixels
Display aspect ratio        : 2.35:1
Frame rate mode             : Constant
Frame rate                  : 24.000 FPS
Color space                 : YUV
Chroma subsampling          : 4:2:0
Bit depth                   : 8 bits
Scan type                   : Progressive
Bits/(Pixel*Frame)          : 0.177
Stream size                 : 4.01 GiB (92%)
Writing library             : x264 core 130 r2273 b3065e6
Encoding settings           : cabac=1 / ref=5 / deblock=1:-3:-3 / analyse=0x3:0x113 / me=umh / subme=11 / psy=1 / psy_rd=1.00:0.15 / mixed_ref=1 / me_range=48 / chroma_me=1 / trellis=2 / 8x8dct=1 / cqm=0 / deadzone=21,11 / fast_pskip=0 / chroma_qp_offset=-4 / threads=6 / lookahead_threads=1 / sliced_threads=0 / nr=0 / decimate=0 / interlaced=0 / bluray_compat=0 / constrained_intra=0 / bframes=8 / b_pyramid=2 / b_adapt=2 / b_bias=0 / direct=2 / weightb=1 / open_gop=0 / weightp=2 / keyint=250 / keyint_min=24 / scenecut=40 / intra_refresh=0 / rc=2pass / mbtree=0 / bitrate=6664 / ratetol=1.0 / qcomp=0.60 / qpmin=0 / qpmax=69 / qpstep=4 / cplxblur=20.0 / qblur=0.5 / ip_ratio=1.40 / pb_ratio=1.30 / aq=2:1.00
Language                    : English
Default                     : Yes
Forced                      : No
Color range                 : Limited
Color primaries             : Generic film
Matrix coefficients         : YCgCo

Audio
ID                          : 2
Format                      : AC-3
Format/Info                 : Audio Coding 3
Codec ID                    : A_AC3
Duration                    : 1 h 28 min
Bit rate mode               : Constant
Bit rate                    : 448 kb/s
Channel(s)                  : 6 channels
Channel positions           : Front: L C R, Side: L R, LFE
Sampling rate               : 48.0 kHz
Frame rate                  : 31.250 FPS (1536 SPF)
Bit depth                   : 16 bits
Compression mode            : Lossy
Stream size                 : 282 MiB (6%)
Title                       : The Brøken
Language                    : Russian
Service kind                : Complete Main
Default                     : Yes
Forced                      : No

Text
ID                          : 3
Format                      : UTF-8
Codec ID                    : S_TEXT/UTF8
Codec ID/Info               : UTF-8 Plain Text
Title                       : The Brøken
Language                    : English
Default                     : No
Forced                      : No






Скачать Отражение.(Разбитое.зеркало).The.Broken.(Шон.Эллис).[2008.ужасы.триллер.драма.BDRip].[1080p].[Dub].[R.G.Goldenshara].torrent без регистрации
Золото ЗОЛОТАЯ РАЗДАЧА! СКАЧАННОЕ НЕ ЗАСЧИТЫВАЕТСЯ! Золото
Дата: Зарегистрирован   [ Тип: внутренний ] Как тут cкачать?
MAGNET ссылка
MAGNET ссылка


Скачать .torrent

11 KB

Статус: проверено DHT
Скачан: торрент - 77 раз, раздача полностью - 26 раз
Размер: 4,37 GB
Оценка:  5 (Голосов: 3)
Поблагодарили: 6
Поделиться ссылкой на эту раздачу с друзьями:
В контактеFacebookОдноклассникиTwitterLivejournalМой МирLiveinternet
 

 
Показать сообщения:    


Вы не можете начинать темы
Вы не можете отвечать на сообщения
Вы не можете редактировать свои сообщения
Вы не можете удалять свои сообщения
Вы не можете голосовать в опросах
Вы не можете прикреплять файлы к сообщениям
Вы можете скачивать файлы