Loading...
Error

Скачать Главный конструктор (Владимир Семаков) [1980, Драма, DVB] торрент без регистрации

Статистика раздачи
Размер:  4,58 GB   |    Скачан:  43 раза
Сидов:  1  [  0 KB/s  ]  
 
 
 
Автор Сообщение

leon030982

[] 

Главный конструктор


Жанр: Драма
Год выпуска: 1980
Продолжительность: 01:03:00+01:05:00
Перевод: не тебуется

Режиссёр: Владимир Семаков

В ролях: Борис Невзоров — Михаил Ильич Кошкин
Юрий Каюров — Рагозин, зам. наркома
Николай Пеньков — Гаевой
Валентина Панина — Галина
Владимир Гусев — Степарь
Алексей Крыченков — Битов
Нуржуман Ихтымбаев — Ходжиков
Борис Борисов — директор завода, Иван
Александр Пороховщиков — Мальцев
Владимир Суворов — Дядя Гриша
Иван Дмитриев — Семён Семёнович


Действие фильма происходит в 1940 году. На одном из военных заводов генеральным конструктором назначают Михаила Кошкина. Он с энтузиазмом берётся за разработку принципиально нового типа танка. Машина во время испытаний показывает прекрасные характеристики, но в Москве почему-то не обращают внимания на перспективную разработку. Тогда Михаил Ильич решает своим ходом доставить новый танк в столицу. Машина успешно справилась с испытанием, но её конструктор в ходе пробега простудился и смертельно заболел…




Запись со спутника Yamal 202 at 49.0°E

Качество видео: DVB
Формат видео: MPEG-PS
Видео: MPEG2, 704х576, 4840 Kbps, 25 fps, Bits/(Pixel*Frame) : 0.477
Аудио: MP2, 192 Kbps, 2 ch, 48 KHz
В фильме показан танк более поздней модификации Т-34-85, серийно выпускавшийся с 1944-го года.

В судьбе танка дважды участвовал Иосиф Сталин. В феврале 1939 года, на очередном заседании Комитета Обороны, приняв проект будущего танка Т-34 (А-32). И в ночь на 17 марта, разрешив участие танка в Государственных испытаниях.
Воодушевленный приемом в Москве, после испытаний, конструктор Михаил Кошкин, в обратный путь отправился на тех же танках, будучи уже тяжело больным.

В фильме действует некий зам. наркома обороны по вооружениям по фамилии Рагозин (его играет Юрий Каюров, которого, кстати, советские зрители того времени привыкли видеть в роли В.И.Ленина) - ярый оппонент Кошкина. Под этой вымышленной фамилией скрывается маршал Советского Союза Григорий Иванович Кулик, занимавший в то время эту должность и действительно невзлюбивший Т-34 (на его совести, кстати, "зарубленные" автоматический станковый гранатомет Таубина /это в те-то времена! как бы он пригодился в оборонительных боях 1941-го!/, безоткатные пушки Л.Курчевского /если бы к ним догадались сделать кумулятивный снаряд, который, если верить нашим сегодняшним справочникам, изобрел русский военный инженер еще в 1868 г. - немецкие танки в 1941-м были бы расстреляны максимум в несколько недель!/, ну и, конечно, то, что, вместо заказанных полковником И.Г.Стариновым 400000 противотанковых и противопехотных мин, было выпущено к началу войны всего 400). Обратим внимание: Рагозина в фильме зовут - ГРИГОРИЙ ИВАНОВИЧ, то есть изменена только фамилия. Как известно, с началом войны Кулик был послан на фронт и показал себя не лучшим образом, в результате чего Сталин разжаловал его в генерал-майоры. Наконец уже после войны Кулик, основательно "приняв на грудь" в гостинице "Москва" с другим таким же полководцем - генералом Гордовым ("опущенным" всего лишь с командующего фронтом /Сталинградским - это он допустил немцев к Волге и только там был сменен Рокоссовским/ до командующего армией) стали изливать друг другу свои обиды на Сталина по принципу "сам он дурак" (это восхитительно - неужели не хватило ума подумать, что гостиница для советской элиты прослушивается "органами"?! как же они генералами стали с таким умственным уровнем?). Ответ последовал незамедлительно: оба были арестованы и расстреляны. И хотя фильм "Главный конструктор" снимался через много лет после XX съезда, видимо, эта "жертва сталинских репрессий" создателям фильма (или цензуре) не понравилась и Кулика, продолжая Сталинскую традицию, оставили "вычеркнутым" из истории...

Аналогично Кулику, в фильме показан и нарком Вячеслав Малышев, под вымышленной фамилией Мальцев, но только, в отличие от маршала, с положительной стороны.
G:\ИСТОРИЧЕСКИЕ\Главный конструктор\Главный конструктор - 1 серия.mpg
General
Complete name : G:\ИСТОРИЧЕСКИЕ\Главный конструктор\Главный конструктор - 1 серия.mpg
Format : MPEG-PS
File size : 2.25 GiB
Duration : 1h 3mn
Overall bit rate mode : Variable
Overall bit rate : 5 095 Kbps
Writing library : (c) 1998-2011 Womble Multimedia, Inc. / MPEG Video Wizard DVD 5.0.1.100 (03/2011) / May 27 2011
Video #224
ID : 224 (0xE0)
Format : MPEG Video
Format version : Version 2
Format profile : Main@Main
Format settings, BVOP : Yes
Format settings, Matrix : Custom
Format settings, GOP : M=3, N=24
Duration : 1h 3mn
Bit rate mode : Variable
Bit rate : 4 840 Kbps
Width : 704 pixels
Height : 576 pixels
Display aspect ratio : 4:3
Frame rate : 25.000 fps
Standard : PAL
Color space : YUV
Chroma subsampling : 4:2:0
Bit depth : 8 bits
Scan type : Interlaced
Scan order : Top Field First
Compression mode : Lossy
Bits/(Pixel*Frame) : 0.477
Stream size : 2.12 GiB (94%)
Writing library : (c) 1998-2011 Womble Multimedia, Inc. / MPEG Video Wizard DVD 5.0.1.100 (03/2011) / May 27 2011
Audio #192
ID : 192 (0xC0)
Format : MPEG Audio
Format version : Version 1
Format profile : Layer 2
Duration : 1h 3mn
Bit rate mode : Constant
Bit rate : 192 Kbps
Channel(s) : 2 channels
Sampling rate : 48.0 KHz
Compression mode : Lossy
Stream size : 86.8 MiB (4%)



Скачать Главный.конструктор.(Владимир.Семаков).[1980.Драма.DVB].torrent без регистрации
Золото ЗОЛОТАЯ РАЗДАЧА! СКАЧАННОЕ НЕ ЗАСЧИТЫВАЕТСЯ! Золото
Дата: Зарегистрирован   [ Тип: внутренний ] Как тут cкачать?
MAGNET ссылка
MAGNET ссылка


Скачать .torrent

12 KB

Статус: проверено DHT
Скачан: торрент - 43 раз, раздача полностью - 4 раз
Размер: 4,58 GB
Оценка:  - (Голосов: 0)
Поблагодарили: 0
Поделиться ссылкой на эту раздачу с друзьями:
В контактеFacebookОдноклассникиTwitterLivejournalМой МирLiveinternet
 

 
Показать сообщения:    


Вы не можете начинать темы
Вы не можете отвечать на сообщения
Вы не можете редактировать свои сообщения
Вы не можете удалять свои сообщения
Вы не можете голосовать в опросах
Вы не можете прикреплять файлы к сообщениям
Вы можете скачивать файлы