Loading...
Error

Скачать Аманат (Сатыбалды Нарымбетов) [2016, Казахстан, драма, DVB] [Original Rus] торрент без регистрации

Статистика раздачи
Размер:  1,93 GB   |    Скачан:  38 раз
Сидов:  1  [  0 KB/s  ]  
 
 
 
Автор Сообщение

leon030982

[] 

Аманат
Страна: Казахстан
Жанр: драма
Продолжительность: 02:07:01
Год выпуска: 2016
Перевод: не требуется
Субтитры: отсутствуют

Режиссёр: Сатыбалды Нарымбетов

В ролях: Берик Айтжанов, Санжар Мадиев, Куралай Анарбекова, Карлыгаш Мухамеджанова, Ерден Телемисов, Азиз Бейшеналиев, Дмитрий Скирта, Артем Митнев, Азат Нуртаев, Ажар Ибраева

О фильме: Обращение в советскую эпоху к прошлому казахского народа обернулось драмой для истинного патриота – ученого историка Ермухана Бекмаханова. Он возродил к жизни, казалось, канувшее в Лету имя и подвиг мятежного хана Кенесары. Продолжая отважный путь историка, эстафету обращения к фигуре Кенесары подхватывает молодой журналист – главный герой фильма Рамазан и тоже сталкивается с преградами, берущими свое начало в сталинской эпохе забвения прошлого.
Увлекательная перекличка эпох, восхождение на пик славы и низведение триумфального подвига до полного забвения – такова амплитуда судеб героев фильма. Но справедливость восторжествовала и, в конце концов, забытые имена великих людей – истинных сыновей казахского народа вновь прозвучали, обозначая собой истинные параметры духовной мощи народа.


Семпл: https://www.sendspace.com/file/rmdv90Доп. информация: Казахские диалоги переведены одноголосой озвучкой.

Качество: DVB [Ел Арна] (эфир 30.05.2018)
Формат: TS
Видео: AVC, 720x576 @ 1047x576 (16:9), 25 fps, ~1875 kbps, 0.181 bit/pixel
Аудио: [RUS] 48 kHz, MP2, 2 ch, 192 kbps
Общее
Идентификатор : 1 (0x1)
Полное имя : F:\Аманат (2016) [DVB].ts
Формат : MPEG-TS
Размер файла : 1,93 Гбайт
Продолжительность : 2 ч. 7 м.
Режим общего битрейта : Переменный
Общий поток : 2176 Кбит/сек

Видео
Идентификатор : 67 (0x43)
Идентификатор меню : 1 (0x1)
Формат : AVC
Формат/Информация : Advanced Video Codec
Профиль формата : High@L3
Параметр CABAC формата : Да
Параметр RefFrames формата : 3 кадра
Идентификатор кодека : 27
Продолжительность : 2 ч. 7 м.
Битрейт : 1875 Кбит/сек
Ширина : 720 пикселей
Высота : 576 пикселей
Соотношение сторон : 16:9
Частота кадров : 25,000 кадров/сек
Стандарт вещания : Component
Цветовое пространство : YUV
Субдискретизация насыщенности : 4:2:0
Битовая глубина : 8 бит
Тип развёртки : Чересстрочная
Метод сохранения типа развёртки : Раздельные поля
Порядок развёртки : Верхнее поле первое
Бит/(Пиксели*Кадры) : 0.181
Размер потока : 1,66 Гбайт (86%)
Цветовой диапазон : Limited
Основные цвета : BT.601 PAL
Характеристики трансфера : BT.470 System B, BT.470 System G
Коэффициенты матрицы : BT.470 System B, BT.470 System G

Аудио
Идентификатор : 68 (0x44)
Идентификатор меню : 1 (0x1)
Формат : MPEG Audio
Версия формата : Version 1
Профиль формата : Layer 2
Идентификатор кодека : 3
Продолжительность : 2 ч. 7 м.
Вид битрейта : Постоянный
Битрейт : 192 Кбит/сек
Каналы : 2 канала
Частота : 48,0 КГц
Метод сжатия : С потерями
Задержка видео : -40 мс.
Размер потока : 174 Мбайт (9%)
Язык : English



Скачать Аманат.(Сатыбалды.Нарымбетов).[2016.Казахстан.драма.DVB].[Original.Rus].torrent без регистрации
Золото ЗОЛОТАЯ РАЗДАЧА! СКАЧАННОЕ НЕ ЗАСЧИТЫВАЕТСЯ! Золото
Дата: Зарегистрирован   [ Тип: внутренний ] Как тут cкачать?
MAGNET ссылка
MAGNET ссылка


Скачать .torrent

20 KB

Статус: проверено DHT
Скачан: торрент - 38 раз, раздача полностью - 3 раз
Размер: 1,93 GB
Оценка:  - (Голосов: 0)
Поблагодарили: 1
Поделиться ссылкой на эту раздачу с друзьями:
В контактеFacebookОдноклассникиTwitterLivejournalМой МирLiveinternet
 

 
Показать сообщения:    


Вы не можете начинать темы
Вы не можете отвечать на сообщения
Вы не можете редактировать свои сообщения
Вы не можете удалять свои сообщения
Вы не можете голосовать в опросах
Вы не можете прикреплять файлы к сообщениям
Вы можете скачивать файлы