Loading...
Error

Скачать Грезы / Reverie (Сезон 01, серии 01-02 из 10) (Мэтт Эрл Бисли, Жаума Кольет-Серра) [2018, Триллер, драма, фантастика, WEBRip] [MVO] (Profix Media) торрент без регистрации

Статистика раздачи
Размер:  1,08 GB   |    Скачан:  37 раз
Сидов:  1  [  0 KB/s  ]  
 
 
 
Автор Сообщение

leon030982

[] 

Грезы / Reverie
Год выпуска: 2018
Страна: США
Жанр: Триллер, драма, фантастика
Продолжительность: ~ 00:44:00
Перевод: Профессиональный (многоголосый закадровый) «Profix Media»

Режиссёр: Мэтт Эрл Бисли, Жаума Кольет-Серра, Кеннет Финк

В ролях: Сара Шахи, Дэннис Хэйсбёрт, Кэтрин Моррис, Сендхил Рамамурти, Джессика Лу, Джон Флетчер, Гари Краус, Саша Компере, Тиша Френч, Оливия Агилар

Описание
Бывшего переговорщика и поведенческого эксперта Мару привлекают к проекту продвинутой программы виртуальной реальности, пользователи которой отказались возвращаться и впали в опасную виртуальную кому. Ей предстоит проникнуть в сознание других людей, чтобы убедить их вернуться в реальный мир.



Рип от -- JuSSiKa

Качество: WEBRip
Контейнер: AVI
Видео: XviD, ~ 1500 Кбит/с, 720x400
Аудио 1: MP3, 48 kHz, 2 ch, 128 kbps - Rus
Аудио 2: MP3, 48 kHz, 2 ch, 128 kbps - Eng
Полное имя : Reverie.S01.WEBRip.RusEng.Profix.Media\Reverie.S01E01.WEBRip.RusEng.Profix.Media.L.avi
Формат : AVI
Формат/Информация : Audio Video Interleave
Размер файла : 551 Мбайт
Продолжительность : 42 м. 56 с.
Общий поток : 1793 Кбит/сек
Программа кодирования : VirtualDubMod 1.5.10.3 (build 2550/release)
Библиотека кодирования : VirtualDubMod build 2550/release

Видео
Идентификатор : 0
Формат : MPEG-4 Visual
Профиль формата : Advanced Simple@L5
Настройки формата : BVOP1
Параметр BVOP формата : 1
Параметр QPel формата : Нет
Параметр GMC формата : Без точки перехода
Параметр матрицы формата : Default (H.263)
Идентификатор кодека : XVID
Идентификатор кодека/Подсказка : XviD
Продолжительность : 42 м. 56 с.
Битрейт : 1523 Кбит/сек
Ширина : 720 пикселей
Высота : 400 пикселей
Соотношение сторон : 16:9
Частота кадров : 23,976 (24000/1001) кадра/сек
Цветовое пространство : YUV
Субдискретизация насыщенности : 4:2:0
Битовая глубина : 8 бит
Тип развёртки : Прогрессивная
Метод сжатия : С потерями
Бит/(Пиксели*Кадры) : 0.221
Размер потока : 468 Мбайт (85%)
Библиотека кодирования : XviD 1.2.1 (UTC 2008-12-04)

Аудио #1
Идентификатор : 1
Формат : MPEG Audio
Версия формата : Version 1
Профиль формата : Layer 3
Настройки формата : Joint stereo / MS Stereo
Режим : Joint stereo
Расширение режима : MS Stereo
Идентификатор кодека : 55
Идентификатор кодека/Подсказка : MP3
Продолжительность : 42 м. 56 с.
Вид битрейта : Постоянный
Битрейт : 128 Кбит/сек
Каналы : 2 канала
Частота : 48,0 КГц
Метод сжатия : С потерями
Размер потока : 39,3 Мбайт (7%)
Выравнивание : Соединение по промежуткам
Продолжительность промежутка : 42 мс. (1,00 видеокадр)
Время предзагрузки промежутка : 504 мс.

Аудио #2
Идентификатор : 2
Формат : MPEG Audio
Версия формата : Version 1
Профиль формата : Layer 3
Настройки формата : Joint stereo / MS Stereo
Режим : Joint stereo
Расширение режима : MS Stereo
Идентификатор кодека : 55
Идентификатор кодека/Подсказка : MP3
Продолжительность : 42 м. 56 с.
Вид битрейта : Постоянный
Битрейт : 128 Кбит/сек
Каналы : 2 канала
Частота : 48,0 КГц
Метод сжатия : С потерями
Размер потока : 39,3 Мбайт (7%)
Выравнивание : Соединение по промежуткам
Продолжительность промежутка : 42 мс. (1,00 видеокадр)
Время предзагрузки промежутка : 504 мс.
Внимание! Раздача ведётся путём добавления новых серий; при каждом добавлении создётся новый торрент. Чтобы начать докачку новой серии, пользователям необходимо сделать следующее:
Остановить скачивание.
Удалить старый торрент у себя из клиента (старые серии удалять не надо).
Скачать новый торрент и запустить его у себя в клиенте вместо старого, при этом указать клиенту путь в старую папку куда и должно происходить скачивание новых серий.
Ваш клиент при этом должен произвести хеширование (проверку) старой папки (если не производит сам - помогите ему сделать это), и будет докачивать только те серии которых у вас ещё нет. Старые серии при этом не удаляются, а продолжают раздаваться!
Eсли вы уже удалили старые серии, то предотвратить повторную закачку старых серий можно, отжав галочку в соответсвующих местах при запуске нового торрента. По возможности, желательно не удалять старые серии как можно дольше чтобы релизёр не столько продолжал раздавать старые серии, а смог сконцентрироваться на новых.



Скачать Грезы.Reverie.(Сезон.01.серии.01-02.из.10).(Мэтт.Эрл.Бисли.Жаума.Кольет-Серра).[2018.Триллер.драма.фантастика.WEBRip].[MVO].(Profix.Media).torrent без регистрации
Золото ЗОЛОТАЯ РАЗДАЧА! СКАЧАННОЕ НЕ ЗАСЧИТЫВАЕТСЯ! Золото
Дата: Зарегистрирован   [ Тип: внутренний ] Как тут cкачать?
MAGNET ссылка
MAGNET ссылка


Скачать .torrent

11 KB

Статус: проверено DHT
Скачан: торрент - 37 раз, раздача полностью - 2 раз
Размер: 1,08 GB
Оценка:  - (Голосов: 0)
Поблагодарили: 0
Поделиться ссылкой на эту раздачу с друзьями:
В контактеFacebookОдноклассникиTwitterLivejournalМой МирLiveinternet
 

 
Показать сообщения:    


Вы не можете начинать темы
Вы не можете отвечать на сообщения
Вы не можете редактировать свои сообщения
Вы не можете удалять свои сообщения
Вы не можете голосовать в опросах
Вы не можете прикреплять файлы к сообщениям
Вы можете скачивать файлы