Loading...
Error

Скачать Гений: Пикассо / Genius: Picasso (Сезон 02) (Кеннет Биллер, Джеймс Хоуз, Кевин Хукс) [2018, Драма, биография, история, WEB-DLRip] [MVO] (Jaskier) + Original торрент без регистрации

Статистика раздачи
Размер:  5,86 GB   |    Скачан:  58 раз

Полного источника не было: 20 минут

 
 
 
Автор Сообщение

leon030982

[] 

Гений| Genius
Год выпуска: 2018
Страна: США
Жанр: Драма, биография, история
Продолжительность: ~ 00:59:00
Перевод: Профессиональный (многоголосый закадровый) | Jaskier

Режиссёр: Кеннет Биллер, Джеймс Хоуз, Кевин Хукс

В ролях: Антонио Бандерас, Максимилиан Бефорт, Поппи Делевинь, Эшлинг Франчози, Клеманс Поэзи, Алекс Рич, Себастьян Роше, Андреа Скардуцио, Роберт Шиэн, Маркус фон Линген и др.

Описание: Он был многоаспектным творцом, чьи творения невозможно классифицировать и подогнать под принятые стандарты. Двадцатый век часто называют эпохой разрушения границ, и он был одним из тех, кто их разрушал, перестраивал под себя, создавая собственную систему координат. Являясь основоположником кубизма, он не боялся экспериментировать в любом направлении, принося что-то свое, будь то скульптура или живопись. Создав из своего имени бренд, он тщательно работал над ним, окружая себя тайнами и загадками. Все это привело к тому, что уже после смерти, он был признан самым дорогим художником в истории, чьи полотна продаются за сотни миллионов долларов с аукционов. Этот сериал - не только рассказ об одаренном провокаторе, а еще и о том, как, благодаря таким талантливым людям как он, изобразительное искусство видоизменялось и трансформировалось, становясь все более необычным и экзотичным.



Качество: WEB-DLRip
Формат: AVI
Видео: XviD, ~ 1400 kbps, 704x352 (2,000), 23.976 fps
Аудио 1: MP3, 48,0 КГц, 2 ch, 128 kbps - Rus
Аудио 2: MP3, 48,0 КГц, 2 ch, 128 kbps - Eng
Субтитры: отсутствуют
Переведено и озвучено: студией Jaskier
Общее
Полное имя                               : H:\Ясы-сериалы\Genius. Season 2 (WEB-DLRip l 400p l Jaskier)\Genius.S02E01.WEB-DLRip.Rus.Eng.Jaskier.avi
Формат                                   : AVI
Формат/Информация                        : Audio Video Interleave
Размер файла                             : 601 Мбайт
Продолжительность                        : 50 м. 12 с.
Общий поток                              : 1673 Кбит/сек
Программа кодирования                    : VirtualDubMod 1.5.10.3 | www.virtualdub-fr.org || (build 2550/release)
Библиотека кодирования                   : VirtualDubMod build 2550/release

Видео
Идентификатор                            : 0
Формат                                   : MPEG-4 Visual
Профиль формата                          : Advanced Simple@L5
Настройки формата                        : BVOP1 / Custom Matrix
Параметр BVOP формата                    : 1
Параметр QPel формата                    : Нет
Параметр GMC формата                     : Без точки перехода
Параметр матрицы формата                 : Выборочная
Идентификатор кодека                     : XVID
Идентификатор кодека/Подсказка           : XviD
Продолжительность                        : 50 м. 12 с.
Битрейт                                  : 1403 Кбит/сек
Ширина                                   : 704 пикселя
Высота                                   : 352 пикселя
Соотношение сторон                       : 2,000
Частота кадров                           : 23,976 (24000/1001) кадра/сек
Цветовое пространство                    : YUV
Субдискретизация насыщенности            : 4:2:0
Битовая глубина                          : 8 бит
Тип развёртки                            : Прогрессивная
Метод сжатия                             : С потерями
Бит/(Пиксели*Кадры)                      : 0.236
Размер потока                            : 504 Мбайт (84%)
Библиотека кодирования                   : XviD 73

Аудио #1
Идентификатор                            : 1
Формат                                   : MPEG Audio
Версия формата                           : Version 1
Профиль формата                          : Layer 3
Настройки формата                        : Joint stereo / MS Stereo
Идентификатор кодека                     : 55
Идентификатор кодека/Подсказка           : MP3
Продолжительность                        : 50 м. 11 с.
Вид битрейта                             : Постоянный
Битрейт                                  : 128 Кбит/сек
Каналы                                   : 2 канала
Частота                                  : 48,0 КГц
Метод сжатия                             : С потерями
Размер потока                            : 46,0 Мбайт (8%)
Выравнивание                             : Соединение по промежуткам
Продолжительность промежутка             : 42  мс. (1,00 видеокадр)
Время предзагрузки промежутка            : 504  мс.

Аудио #2
Идентификатор                            : 2
Формат                                   : MPEG Audio
Версия формата                           : Version 1
Профиль формата                          : Layer 3
Настройки формата                        : Joint stereo / MS Stereo
Идентификатор кодека                     : 55
Идентификатор кодека/Подсказка           : MP3
Продолжительность                        : 50 м. 12 с.
Вид битрейта                             : Постоянный
Битрейт                                  : 128 Кбит/сек
Каналы                                   : 2 канала
Частота                                  : 48,0 КГц
Метод сжатия                             : С потерями
Размер потока                            : 46,0 Мбайт (8%)
Выравнивание                             : Соединение по промежуткам
Продолжительность промежутка             : 42  мс. (1,00 видеокадр)
Время предзагрузки промежутка            : 504  мс.
Когда раздача ведётся путём добавления новых серий, при каждом добавлении создётся новый торрент. Чтобы начать докачку новой серии, пользователям необходимо сделать следующее:
(1) остановить скачивание,
(2) удалить старый торрент у себя из клиента (старые серии удалять не надо),
(3) скачать новый торрент и запустить его у себя в клиенте вместо старого, при этом указать клиенту путь в старую папку, куда и должно происходить скачивание новых серий.
Ваш клиент при этом должен произвести хеширование (проверку) старой папки (если не производит сам - помогите ему сделать это), и будет докачивать только те серии, которых у вас ещё нет. Старые серии при этом не удаляются, а продолжают раздаваться!
Eсли вы уже удалили старые серии, то предотвратить повторную закачку старых серий можно, отжав галочку в соответсвующих местах при запуске нового торрента. По возможности, желательно не удалять старые серии как можно дольше, чтобы релизёр не столько продолжал раздавать старые серии, а смог сконцентрироваться на новых.



Скачать Гений.Пикассо.Genius.Picasso.(Сезон.02).(Кеннет.Биллер.Джеймс.Хоуз.Кевин.Хукс).[2018.Драма.биография.история.WEB-DLRip].[MVO].(Jaskier).+.Original.torrent без регистрации
Золото ЗОЛОТАЯ РАЗДАЧА! СКАЧАННОЕ НЕ ЗАСЧИТЫВАЕТСЯ! Золото
Дата: Зарегистрирован   [ Тип: внутренний ] Как тут cкачать?
MAGNET ссылка
MAGNET ссылка


Скачать .torrent

31 KB

Статус: проверено DHT
Скачан: торрент - 58 раз, раздача полностью - 0 раз
Размер: 5,86 GB
Оценка:  - (Голосов: 0)
Поблагодарили: 0
Поделиться ссылкой на эту раздачу с друзьями:
В контактеFacebookОдноклассникиTwitterLivejournalМой МирLiveinternet
 

 
Показать сообщения:    


Вы не можете начинать темы
Вы не можете отвечать на сообщения
Вы не можете редактировать свои сообщения
Вы не можете удалять свои сообщения
Вы не можете голосовать в опросах
Вы не можете прикреплять файлы к сообщениям
Вы можете скачивать файлы