Loading...
Error

Скачать Дьявольские врата / Devil's Gate (Клэй Стауб) [2017, ужасы, фантастика, триллер, BDRip] [1080p] [MVO (Jaskier)] [R.G. Goldenshara] торрент без регистрации

Статистика раздачи
Размер:  4,33 GB   |    Скачан:  120 раз
Сидов:  2  [  0 KB/s  ]  
 
 
 
Автор Сообщение

sobmaster

[] 



Дьявольские врата
Devil's Gate




Год выпуска: 2017
Страна: Канада , США
Выпущено: Mednick Productions
Слоган: «Pray they are never found»
Жанр: ужасы, фантастика, триллер

Продолжительность: 01:34:16
Перевод: Профессиональный (многоголосый, закадровый) (Jaskier)
Режиссер: Клэй Стауб
Сценарий: Питер Аперло, Клэй Стауб
Продюсер: Валери д’Отей, Йен Димерман, Скотт Медник
Оператор: Мирослав Бажак
Композитор: Кифес Чанция
Художник: Режан Лябри, Хезер Нил, Стефен Арндт
Монтаж: Гийом Жирар, Иванн Тибодо
В ролях:


Майло Вентимилья (Jackson Pritchard), Аманда Шулл (FBI Special Agent Daria Francis), Бриджет Риган (Maria Pritchard), Хавьер Ботет, Джонатан Фрейкс (Sheriff Gruenwell), Шон Эшмор (Conrad «Colt» Salter), Спенсер Древер (Jonah), Адам Хертиг (Pearce Bacca), Скотт Джонсон (Sheriff), Сара Констибл (Theresa Locke), Уилл Войтович (Male FBI Agent), Беверли Ндукву (Tanya Breeland), Жан Скин (Jenna), Жан-Франсуа Ферланд (FBI Special Agent Steel)
Мировая премьера: 24 апреля 2017
MPAA: - Лицам до 17 лет обязательно присутствие взрослого

Описание: Агент ФБР Дарина Френсис расследует дело об исчезновении Марии Причард и её сына Джона. Главным подозреваемым становится супруг Марии Джексон Причард, о чем сообщила сестра пропавшей. И действительно, сложно его не заподозрить — мужчина обтянул забор колючей проволокой, заколотил окна, наставил вокруг капканов и прочих страшных ловушек, выглядит и ведёт себя как будто явно не в себе. Прибыв к дому Причардов за 50 миль от города и арестовав Джексона, агент Френсис вместе с местным полицейским Солтером становятся свидетелями странных явлений: все автомобили выходят из строя, телефоны не включаются, и вдруг начинается жуткая гроза. Похоже, им придется провести ночь в доме наедине с задержанным.


Качество: BDRip 1080p
Контейнер: MKV
Видео: AVC, 1920x804 (2.40:1), 6191 kbps, 23.976 fps, 0.167 bpp
Аудио: русский /; AC3 /; 5.1 /; 48 kHz /; 384 kbps /; 16 bit; ||
Субтитры: английские (SDH)
Навигация по главам: есть

АНОНСЫ ПОПУЛЯРНЫХ РАЗДАЧ


Код:

General
Unique ID                   : 231333653073369976599237705278032897001 (0xAE093DAF8B6FC53A898B4648C85EE3E9)
Complete name               : E:\Мои рипы\Дьявольские врата.2017.BDRip.1080p.MVO.mkv
Format                      : Matroska
Format version              : Version 4 / Version 2
File size                   : 4.33 GiB
Duration                    : 1 h 34 min
Overall bit rate            : 6 576 kb/s
Movie name                  : Devils.Gate.2017.1080p.BluRay.REMUX.ZGV
Encoded date                : UTC 2018-06-15 08:34:24
Writing application         : mkvmerge v6.8.0 ('Theme for Great Cities') 32bit built on Mar  2 2014 21:27:07
Writing library             : libebml v1.3.0 + libmatroska v1.4.1
Cover                       : Yes
Attachments                 : cover.jpg

Video
ID                          : 1
Format                      : AVC
Format/Info                 : Advanced Video Codec
Format profile              : High@L4.1
Format settings             : CABAC / 5 Ref Frames
Format settings, CABAC      : Yes
Format settings, ReFrames   : 5 frames
Codec ID                    : V_MPEG4/ISO/AVC
Duration                    : 1 h 34 min
Bit rate                    : 6 191 kb/s
Width                       : 1 920 pixels
Height                      : 804 pixels
Display aspect ratio        : 2.40:1
Frame rate mode             : Constant
Frame rate                  : 23.976 FPS
Color space                 : YUV
Chroma subsampling          : 4:2:0
Bit depth                   : 8 bits
Scan type                   : Progressive
Bits/(Pixel*Frame)          : 0.167
Stream size                 : 3.99 GiB (92%)
Writing library             : x264 core 130 r2273 b3065e6
Encoding settings           : cabac=1 / ref=5 / deblock=1:-3:-3 / analyse=0x3:0x113 / me=umh / subme=11 / psy=1 / psy_rd=1.00:0.15 / mixed_ref=1 / me_range=48 / chroma_me=1 / trellis=2 / 8x8dct=1 / cqm=0 / deadzone=21,11 / fast_pskip=0 / chroma_qp_offset=-4 / threads=6 / lookahead_threads=1 / sliced_threads=0 / nr=0 / decimate=0 / interlaced=0 / bluray_compat=0 / constrained_intra=0 / bframes=8 / b_pyramid=2 / b_adapt=2 / b_bias=0 / direct=2 / weightb=1 / open_gop=0 / weightp=2 / keyint=250 / keyint_min=23 / scenecut=40 / intra_refresh=0 / rc=2pass / mbtree=0 / bitrate=6191 / ratetol=1.0 / qcomp=0.60 / qpmin=0 / qpmax=69 / qpstep=4 / cplxblur=20.0 / qblur=0.5 / ip_ratio=1.40 / pb_ratio=1.30 / aq=2:1.00
Language                    : English
Default                     : Yes
Forced                      : No
Color range                 : Limited
Color primaries             : Generic film
Matrix coefficients         : YCgCo

Audio
ID                          : 2
Format                      : AC-3
Format/Info                 : Audio Coding 3
Codec ID                    : A_AC3
Duration                    : 1 h 34 min
Bit rate mode               : Constant
Bit rate                    : 384 kb/s
Channel(s)                  : 6 channels
Channel positions           : Front: L C R, Side: L R, LFE
Sampling rate               : 48.0 kHz
Frame rate                  : 31.250 FPS (1536 SPF)
Bit depth                   : 16 bits
Compression mode            : Lossy
Delay relative to video     : 1 s 100 ms
Stream size                 : 259 MiB (6%)
Title                       : MVO (Jaskier)
Language                    : Russian
Service kind                : Complete Main
Default                     : Yes
Forced                      : No

Text
ID                          : 3
Format                      : UTF-8
Codec ID                    : S_TEXT/UTF8
Codec ID/Info               : UTF-8 Plain Text
Title                       : SDH
Language                    : English
Default                     : No
Forced                      : No

Menu
00:00:00.000                : en:Chapter 01
00:07:25.528                : en:Chapter 02
00:16:18.394                : en:Chapter 03
00:22:51.328                : en:Chapter 04
00:29:33.188                : en:Chapter 05
00:35:39.512                : en:Chapter 06
00:43:16.594                : en:Chapter 07
00:50:21.018                : en:Chapter 08
00:57:24.732                : en:Chapter 09
01:09:07.518                : en:Chapter 10
01:16:25.038                : en:Chapter 11
01:25:19.614                : en:Chapter 12
01:34:14.315                : en:Chapter 13






Скачать Дьявольские.врата.Devil's.Gate.(Клэй.Стауб).[2017.ужасы.фантастика.триллер.BDRip].[1080p].[MVO.(Jaskier)].[R.G.Goldenshara].torrent без регистрации
Золото ЗОЛОТАЯ РАЗДАЧА! СКАЧАННОЕ НЕ ЗАСЧИТЫВАЕТСЯ! Золото
Дата: Зарегистрирован   [ Тип: внутренний ] Как тут cкачать?
MAGNET ссылка
MAGNET ссылка


Скачать .torrent

11 KB

Статус: Τ временная раздача
Скачан: торрент - 120 раз, раздача полностью - 58 раз
Размер: 4,33 GB
Оценка:  5 (Голосов: 1)
Поблагодарили: 4
Поделиться ссылкой на эту раздачу с друзьями:
В контактеFacebookОдноклассникиTwitterLivejournalМой МирLiveinternet
 

 
Показать сообщения:    


Вы не можете начинать темы
Вы не можете отвечать на сообщения
Вы не можете редактировать свои сообщения
Вы не можете удалять свои сообщения
Вы не можете голосовать в опросах
Вы не можете прикреплять файлы к сообщениям
Вы можете скачивать файлы