Loading...
Error

Скачать Предательство для начинающих / Backstabbing for Beginners (Пер Флю) [2018, Триллер, драма, история, BDRemux 1080p] [MVO] (HDRezka Studio) торрент без регистрации

Статистика раздачи
Размер:  17,54 GB   |    Скачан:  99 раз
Сидов:  2  [  268 KB/s  ]  
 
 
 
Автор Сообщение

leon030982

[] 

Информация о фильме

Название: Предательство для начинающих
Оригинальное название: Backstabbing for Beginners
Год выхода: 2018
Жанр: Триллер, драма, история
Страна: Дания, Канада, США
Студия: Creative Alliance, Eyeworks Scandi Fiction, Hoylake Capital See
Продолжительность: 01:48:19
Перевод: Профессиональный многоголосый | HDRezka Studio

Режиссер: Пер Флю

В ролях: Тео Джеймс, Бельчим Билгин, Бен Кингсли, Жаклин Биссет, Россиф Сазерленд, Брайан Маркинсон, Рэйчел Уилсон, Шона Макдональд, Даниэла Лавендер, Эйдан Дивайн



О фильме: Молодой идеалист Майкл получает заветную должность координатора в гуманитарной программе ООН. Его отправляют в приходящий себя после войны Ирак, который теперь рвут на части правительственные агенты и представители могущественных нефтяных корпораций. Обжиться на новом месте и вникнуть в дела ему помогает его начальник — знающий регион изнутри дипломат Паша. Чем больше Майкл узнаёт, тем сильнее крепнут подозрения в большом заговоре на самом высоком уровне. Открыть его — значит поставить под удар собственную жизнь и жизни его наставника и курдской женщины, которую он любит.

Качество: BDRemux 1080p
Видео: MPEG-4 AVC, 1920x1080, 19.3 Mbit/s, 23.976 fps
Звук:
Аудио #01: 48 kHz, AC3, 2.0, 192 Kbps | HDRezka Studio | RUS |
Аудио #02: 48 kHz, DTS-HD MA, 5.1, 3704 Kbps | Оригинал | ENG |
Субтитры: Английские

Релиз от: Автор релиза:
General

Unique ID : 90948310759528572993791192590534812921 (0x446C01EC10B9F671C225DB733C23A4F9)

Complete name : D:Video111Backstabbing.for.Beginners.2018.BDREMUX.1080p.ExKinoRay.mkv

Format : Matroska

Format version : Version 4 / Version 2

File size : 17.5 GiB

Duration : 1 h 48 min

Overall bit rate mode : Variable

Overall bit rate : 23.2 Mb/s

Movie name : Backstabbing for Beginners 2018 from ExKinoRay

Encoded date : UTC 2018-06-17 08:45:02

Writing application : mkvmerge v23.0.0 ('The Bride Said No') 64-bit

Writing library : libebml v1.3.6 + libmatroska v1.4.9

Video

ID : 1

Format : AVC

Format/Info : Advanced Video Codec

Format profile : High@L4.1

Format settings : CABAC / 4 Ref Frames

Format settings, CABAC : Yes

Format settings, ReFrames : 4 frames

Codec ID : V_MPEG4/ISO/AVC

Duration : 1 h 48 min

Bit rate mode : Variable

Bit rate : 19.3 Mb/s

Maximum bit rate : 37.0 Mb/s

Width : 1 920 pixels

Height : 1 080 pixels

Display aspect ratio : 16:9

Frame rate mode : Constant

Frame rate : 23.976 (24000/1001) FPS

Color space : YUV

Chroma subsampling : 4:2:0

Bit depth : 8 bits

Scan type : Progressive

Bits/(Pixel*Frame) : 0.388

Stream size : 14.6 GiB (83%)

Language : English

Default : Yes

Forced : No

Audio #1

ID : 2

Format : AC-3

Format/Info : Audio Coding 3

Codec ID : A_AC3

Duration : 1 h 48 min

Bit rate mode : Constant

Bit rate : 192 kb/s

Channel(s) : 2 channels

Channel positions : Front: L R

Sampling rate : 48.0 kHz

Frame rate : 31.250 FPS (1536 SPF)

Bit depth : 16 bits

Compression mode : Lossy

Stream size : 148 MiB (1%)

Title : MVO [HDRezka]

Language : Russian

Service kind : Complete Main

Default : Yes

Forced : Yes

Audio #2

ID : 3

Format : DTS

Format/Info : Digital Theater Systems

Format profile : MA / Core

Codec ID : A_DTS

Duration : 1 h 48 min

Bit rate mode : Variable / Constant

Bit rate : 3 704 kb/s / 1 509 kb/s

Channel(s) : 6 channels

Channel positions : Front: L C R, Side: L R, LFE

Sampling rate : 48.0 kHz

Frame rate : 93.750 FPS (512 SPF)

Bit depth : 24 bits

Compression mode : Lossless / Lossy

Stream size : 2.80 GiB (16%)

Title : Original

Language : English

Default : No

Forced : No

Text

ID : 4

Format : UTF-8

Codec ID : S_TEXT/UTF8

Codec ID/Info : UTF-8 Plain Text

Duration : 1 h 37 min

Bit rate : 64 b/s

Count of elements : 1267

Stream size : 46.0 KiB (0%)

Title : Full

Language : English

Default : No

Forced : No

Menu

00:00:00.000 : en:Chapter 01

00:06:17.835 : en:Chapter 02

00:13:56.460 : en:Chapter 03

00:20:28.894 : en:Chapter 04

00:26:47.355 : en:Chapter 05

00:34:13.384 : en:Chapter 06

00:39:15.853 : en:Chapter 07

00:47:05.072 : en:Chapter 08

00:55:11.975 : en:Chapter 09

01:01:09.040 : en:Chapter 10

01:08:02.203 : en:Chapter 11

01:13:20.437 : en:Chapter 12

01:20:43.296 : en:Chapter 13

01:28:12.453 : en:Chapter 14

01:34:46.013 : en:Chapter 15

01:39:05.731 : en:Chapter 16



Скачать Предательство.для.начинающих.Backstabbing.for.Beginners.(Пер.Флю).[2018.Триллер.драма.история.BDRemux.1080p].[MVO].(HDRezka.Studio).torrent без регистрации
Золото ЗОЛОТАЯ РАЗДАЧА! СКАЧАННОЕ НЕ ЗАСЧИТЫВАЕТСЯ! Золото
Дата: Зарегистрирован   [ Тип: внутренний ] Как тут cкачать?
MAGNET ссылка
MAGNET ссылка


Скачать .torrent

23 KB

Статус: проверено DHT
Скачан: торрент - 99 раз, раздача полностью - 82 раз
Размер: 17,54 GB
Оценка:  - (Голосов: 0)
Поблагодарили: 3
Поделиться ссылкой на эту раздачу с друзьями:
В контактеFacebookОдноклассникиTwitterLivejournalМой МирLiveinternet
 

 
Показать сообщения:    


Вы не можете начинать темы
Вы не можете отвечать на сообщения
Вы не можете редактировать свои сообщения
Вы не можете удалять свои сообщения
Вы не можете голосовать в опросах
Вы не можете прикреплять файлы к сообщениям
Вы можете скачивать файлы