Loading...
Error

Скачать 2036, происхождение неизвестно / 2036 Origin Unknown (Хасраф Дулул) [2018, Фантастика, WEB-DL] [1080p] [MVO] (HDRezka Studio) торрент без регистрации

Статистика раздачи
Размер:  4,4 GB   |    Скачан:  222 раза
Сидов:  5  [  24 KB/s  ]  
 
 
 
Автор Сообщение

leon030982

[] 

2036, происхождение неизвестно / 2036 Origin Unknown

Информация о фильме

Год выпуска: 2018
Жанр: Фантастика
Страна: Великобритания
Студия: Head Gear Films, Metrol Technology, Origin Unknown Films
Продолжительность: 01:34:34
Перевод: Профессиональный (многоголосый, закадровый) | HDRezka Studio

Режиссер: Хасраф Дулул

В ролях: Кэти Сакхофф, Джули Кокс, Стивен Кри, Рэй Фиарон, Изабелль Марлоу, Джо Уолтерс, Дэвид К.С. Тсе

О фильме:

Действие фильма разворачивается в 30-е годы XXI века. Человечество уже отправило первую миссию на Марс, но она завершилась провалом. В центре повествования находится оператор экспедиции Маккензи Уилсон. Принимать решения ей помогает недавно усовершенствованная система искусственного интеллекта A.R.T.I. Маккензи необходимо как можно скорее выяснить, что пошло не так в ходе той провалившейся миссии. Первое время расследование идёт как по накатанной, однако затем главная героиня выясняет, что искусственный интеллект действует не в её интересах. Вскоре Маккензи раскрывает масштабный заговор, в результате которого все жители Земли могут погибнуть…



Файл

Качество: WEB-DL 1080p AMAZON Version
Формат: MKV
Видео: MPEG-4 AVC, 1920x800, 5829 Kbit/s, 24.000 fps
Аудио 1: AC3, 2 ch, 192 kbps | RUS
Аудио 2: AC3, 6 ch, 640 kbps | ENG
Субтитры: Английские

Релиз: Автор релиза:
General
Unique ID : 119202388323035040231932087188847022433 (0x59AD8B7F4FEFFF785580A215AE275161)
Complete name : D:Video1112036.Origin.Unknown.2018.AMZN.WEB-DL.1080p.ExKinoRay.mkv
Format : Matroska
Format version : Version 4 / Version 2
File size : 4.40 GiB
Duration : 1 h 34 min
Overall bit rate mode : Variable
Overall bit rate : 6 663 kb/s
Movie name : 2036 Origin Unknown 2018 from ExKinoRay AMZN Version
Encoded date : UTC 2018-06-17 11:09:06
Writing application : mkvmerge v23.0.0 ('The Bride Said No') 64-bit
Writing library : libebml v1.3.6 + libmatroska v1.4.9

Video
ID : 1
Format : AVC
Format/Info : Advanced Video Codec
Format profile : High@L4
Format settings : CABAC / 4 Ref Frames
Format settings, CABAC : Yes
Format settings, ReFrames : 4 frames
Codec ID : V_MPEG4/ISO/AVC
Duration : 1 h 34 min
Bit rate mode : Variable
Bit rate : 5 829 kb/s
Maximum bit rate : 15.0 Mb/s
Width : 1 920 pixels
Height : 800 pixels
Display aspect ratio : 2.40:1
Frame rate mode : Constant
Frame rate : 24.000 FPS
Color space : YUV
Chroma subsampling : 4:2:0
Bit depth : 8 bits
Scan type : Progressive
Bits/(Pixel*Frame) : 0.158
Stream size : 3.85 GiB (87%)
Language : English
Default : Yes
Forced : No
Color range : Limited
Color primaries : BT.709
Transfer characteristics : BT.709
Matrix coefficients : BT.709

Audio #1
ID : 2
Format : AC-3
Format/Info : Audio Coding 3
Codec ID : A_AC3
Duration : 1 h 34 min
Bit rate mode : Constant
Bit rate : 192 kb/s
Channel(s) : 2 channels
Channel positions : Front: L R
Sampling rate : 48.0 kHz
Frame rate : 31.250 FPS (1536 SPF)
Bit depth : 16 bits
Compression mode : Lossy
Stream size : 130 MiB (3%)
Title : MVO [HDRezka]
Language : Russian
Service kind : Complete Main
Default : Yes
Forced : Yes

Audio #2
ID : 3
Format : AC-3
Format/Info : Audio Coding 3
Codec ID : A_AC3
Duration : 1 h 34 min
Bit rate mode : Constant
Bit rate : 640 kb/s
Channel(s) : 6 channels
Channel positions : Front: L C R, Side: L R, LFE
Sampling rate : 48.0 kHz
Frame rate : 31.250 FPS (1536 SPF)
Bit depth : 16 bits
Compression mode : Lossy
Stream size : 433 MiB (10%)
Title : Original
Language : English
Service kind : Complete Main
Default : No
Forced : No

Text
ID : 4
Format : UTF-8
Codec ID : S_TEXT/UTF8
Codec ID/Info : UTF-8 Plain Text
Duration : 1 h 34 min
Bit rate : 53 b/s
Count of elements : 1158
Stream size : 36.6 KiB (0%)
Title : SDH
Language : English
Default : No
Forced : No

Menu
00:00:00.000 : en:1
00:09:49.798 : en:2
00:21:31.666 : en:3
00:34:19.141 : en:4
00:44:03.934 : en:5
00:58:29.174 : en:6
01:11:17.192 : en:7
01:21:53.745 : en:8
01:32:33.968 : en:9



Скачать 2036.происхождение.неизвестно.2036.Origin.Unknown.(Хасраф.Дулул).[2018.Фантастика.WEB-DL].[1080p].[MVO].(HDRezka.Studio).torrent без регистрации
Золото ЗОЛОТАЯ РАЗДАЧА! СКАЧАННОЕ НЕ ЗАСЧИТЫВАЕТСЯ! Золото
Дата: Зарегистрирован   [ Тип: внутренний ] Как тут cкачать?
MAGNET ссылка
MAGNET ссылка


Скачать .torrent

6 KB

Статус: проверено DHT
Скачан: торрент - 222 раз, раздача полностью - 238 раз
Размер: 4,4 GB
Оценка:  5 (Голосов: 2)
Поблагодарили: 8
Поделиться ссылкой на эту раздачу с друзьями:
В контактеFacebookОдноклассникиTwitterLivejournalМой МирLiveinternet
 

 
Показать сообщения:    


Вы не можете начинать темы
Вы не можете отвечать на сообщения
Вы не можете редактировать свои сообщения
Вы не можете удалять свои сообщения
Вы не можете голосовать в опросах
Вы не можете прикреплять файлы к сообщениям
Вы можете скачивать файлы