Loading...
Error

Скачать Ограбление в ураган / The Hurricane Heist (Роб Коэн) [2018, боевик, триллер, BDRip] [1080p] [Dub] [Лицензия] [iTunes] [R.G. Goldenshara] торрент без регистрации

Статистика раздачи
Размер:  4,32 GB   |    Скачан:  154 раза
Сидов:  2  [  0 KB/s  ]  
 
 
 
Автор Сообщение

sobmaster

[] 



Ограбление в ураган
The Hurricane Heist




Год выпуска: 2018
Страна: США
Выпущено: Dream Team Films Pvt. Ltd.
Слоган: «The ultimate storm for the perfect heist»
Жанр: боевик, триллер

Продолжительность: 01:43:05
Перевод: Профессиональный (полное дублирование) (iTunes)
Режиссер: Роб Коэн
Сценарий: Скотт Виндхаузер, Джефф Диксон, Энтони Финглтон
Продюсер: Роб Коэн, Марк Дэймон, Моше Дайамант
Оператор: Шелли Джонсон
Композитор: Лорн Бэлф
Художник: Кес Бонне, Эксел Николет, Калин Стоянов
Монтаж: Найвен Хоуи
В ролях:


Тоби Кеббелл (Will), Мэгги Грэйс (Casey), Райан Квантен (Breeze), Ралф Айнесон (Perkins), Мелисса Болона (Sasha), Бен Кросс (Dixon), Джэми Эндрю Катлер (Rice), Кристиан Райан Контрерас (Moreno), Эд Бирч (Frears), Мойо Аканде (Jaqi), Джеймс Баррискейл (Deputy Michaels), Эрик Ронделл (Bruce), Марк Баснайт (Deputy Gabriel), Кит Д. Эванс (Deputy Rothilsberg), Марк Смит (Deputy Baldwin)
Роли дублировали: Борис Георгиевский (Perkins)
Бюджет: $35 000 000
Сборы в США: $6 115 825
Сборы в России: $729 803
Зрители: Россия 150.2 тыс.
Мировая премьера: 28 февраля 2018
Премьера (РФ): 8 марта 2018, «MEGOGO Distribution»
Релиз на DVD: 18 июня 2018, «НД Плэй»
MPAA: - Лицам до 17 лет обязательно присутствие взрослого

Описание: На побережье Америки стремительно надвигается ураган. Тем временем банда воров планирует идеальное ограбление: украсть 600 миллионов долларов из казначейства США, воспользовавшись стихийным бедствием как прикрытием. Но один фактор грабители не учли — честную и подготовленную работницу казначейства. Женщина вовремя объединяется с исследователем ураганов на специализированном бронированном автомобиле, и теперь они — единственные, кто может помешать ворам осуществить план ограбления. Почти единственные, ведь для урагана вне категорий не существует деления на своих и чужих.


Качество: BDRip 1080p
Контейнер: MKV
Видео: AVC, 1920x804 (2.40:1), 5623 kbps, 23.976 fps, 0.152 bpp
Аудио: русский /; AC3 /; 5.1 /; 48 kHz /; 384 kbps /; 16 bit; ||
Субтитры: английские
Навигация по главам: есть

АНОНСЫ ПОПУЛЯРНЫХ РАЗДАЧ


Код:

General
Unique ID                                : 232780561868108646767140684761937542887 (0xAF1FE7CC0CD4110CBB3BDFAEC4F4FEE7)
Complete name                            : E:\Мои рипы\Ограбление в ураган.2018.BDRip.1080p.DUB.mkv
Format                                   : Matroska
Format version                           : Version 4 / Version 2
File size                                : 4.32 GiB
Duration                                 : 1h 43mn
Overall bit rate                         : 5 993 Kbps
Movie name                               : The Hurricane Heist 2018 from ExKinoRay
Encoded date                             : UTC 2018-06-17 12:10:01
Writing application                      : mkvmerge v6.8.0 ('Theme for Great Cities') 32bit built on Mar  2 2014 21:27:07
Writing library                          : libebml v1.3.0 + libmatroska v1.4.1

Video
ID                                       : 1
Format                                   : AVC
Format/Info                              : Advanced Video Codec
Format profile                           : High@L4.1
Format settings, CABAC                   : Yes
Format settings, ReFrames                : 5 frames
Codec ID                                 : V_MPEG4/ISO/AVC
Duration                                 : 1h 43mn
Bit rate                                 : 5 623 Kbps
Width                                    : 1 920 pixels
Height                                   : 804 pixels
Display aspect ratio                     : 2.40:1
Frame rate mode                          : Constant
Frame rate                               : 23.976 fps
Color space                              : YUV
Chroma subsampling                       : 4:2:0
Bit depth                                : 8 bits
Scan type                                : Progressive
Bits/(Pixel*Frame)                       : 0.152
Stream size                              : 3.95 GiB (92%)
Writing library                          : x264 core 130 r2273 b3065e6
Encoding settings                        : cabac=1 / ref=5 / deblock=1:-3:-3 / analyse=0x3:0x113 / me=umh / subme=11 / psy=1 / psy_rd=1.00:0.15 / mixed_ref=1 / me_range=48 / chroma_me=1 / trellis=2 / 8x8dct=1 / cqm=0 / deadzone=21,11 / fast_pskip=0 / chroma_qp_offset=-4 / threads=6 / lookahead_threads=1 / sliced_threads=0 / nr=0 / decimate=0 / interlaced=0 / bluray_compat=0 / constrained_intra=0 / bframes=8 / b_pyramid=2 / b_adapt=2 / b_bias=0 / direct=2 / weightb=1 / open_gop=0 / weightp=2 / keyint=250 / keyint_min=23 / scenecut=40 / intra_refresh=0 / rc=2pass / mbtree=0 / bitrate=5623 / ratetol=1.0 / qcomp=0.60 / qpmin=0 / qpmax=69 / qpstep=4 / cplxblur=20.0 / qblur=0.5 / ip_ratio=1.40 / pb_ratio=1.30 / aq=2:1.00
Language                                 : English
Default                                  : Yes
Forced                                   : No
Color primaries                          : Generic film
Matrix coefficients                      : YCgCo

Audio
ID                                       : 2
Format                                   : AC-3
Format/Info                              : Audio Coding 3
Mode extension                           : CM (complete main)
Format settings, Endianness              : Big
Codec ID                                 : A_AC3
Duration                                 : 1h 43mn
Bit rate mode                            : Constant
Bit rate                                 : 384 Kbps
Channel(s)                               : 6 channels
Channel positions                        : Front: L C R, Side: L R, LFE
Sampling rate                            : 48.0 KHz
Bit depth                                : 16 bits
Compression mode                         : Lossy
Stream size                              : 283 MiB (6%)
Title                                    : Дубляж (iTunes)
Language                                 : Russian
Default                                  : Yes
Forced                                   : No

Text
ID                                       : 3
Format                                   : UTF-8
Codec ID                                 : S_TEXT/UTF8
Codec ID/Info                            : UTF-8 Plain Text
Language                                 : English
Default                                  : No
Forced                                   : No

Menu
00:00:00.000                             : en:00:00:00.000
00:05:41.258                             : en:00:05:41.258
00:13:15.253                             : en:00:13:15.253
00:20:49.456                             : en:00:20:49.456
00:25:48.046                             : en:00:25:48.046
00:30:08.974                             : en:00:30:08.974
00:35:00.890                             : en:00:35:00.890
00:40:40.813                             : en:00:40:40.813
00:45:48.162                             : en:00:45:48.162
00:52:34.359                             : en:00:52:34.359
01:00:22.244                             : en:01:00:22.244
01:06:49.881                             : en:01:06:49.881
01:11:02.341                             : en:01:11:02.341
01:17:43.951                             : en:01:17:43.951
01:25:06.351                             : en:01:25:06.351
01:32:38.595                             : en:01:32:38.595






Скачать Ограбление.в.ураган.The.Hurricane.Heist.(Роб.Коэн).[2018.боевик.триллер.BDRip].[1080p].[Dub].[Лицензия].[iTunes].[R.G.Goldenshara].torrent без регистрации
Золото ЗОЛОТАЯ РАЗДАЧА! СКАЧАННОЕ НЕ ЗАСЧИТЫВАЕТСЯ! Золото
Дата: Зарегистрирован   [ Тип: внутренний ] Как тут cкачать?
MAGNET ссылка
MAGNET ссылка


Скачать .torrent

11 KB

Статус: Τ временная раздача
Скачан: торрент - 154 раз, раздача полностью - 91 раз
Размер: 4,32 GB
Оценка:  5 (Голосов: 4)
Поблагодарили: 11
Поделиться ссылкой на эту раздачу с друзьями:
В контактеFacebookОдноклассникиTwitterLivejournalМой МирLiveinternet
 

 

Голден Шура

[] 

sobmaster, что-то типа фильма "Ливень", но только в ураган? ab
 

sobmaster

[] 

Ну, до "Ливня" ему далеко, но тема интересная и обыграна вполне достойно! ay
 
Показать сообщения:    


Вы не можете начинать темы
Вы не можете отвечать на сообщения
Вы не можете редактировать свои сообщения
Вы не можете удалять свои сообщения
Вы не можете голосовать в опросах
Вы не можете прикреплять файлы к сообщениям
Вы можете скачивать файлы