Loading...
Error

Скачать Импульс / Impulse (Сезон 01, серии 01-03 из 10) (Джеффри Либер / Jeffrey Lieber) [2018, фантастика, боевик, WEBRip-AVC] [DVO] (Кубик в кубе) торрент без регистрации

Статистика раздачи
Размер:  1,85 GB   |    Скачан:  82 раза
Сидов:  1  [  0 KB/s  ]  
 
 
 
Автор Сообщение

leon030982

[] 

Импульс / Impulse

Год выпуска: 2018
Страна: США
Производство: YouTube Red
Жанр: фантастика, боевик
Продолжительность: 00:50:00
Перевод: Профессиональный (двухголосый закадровый) Кубик в кубе

Адаптация: Джеффри Либер / Jeffrey Lieber

В ролях: Мэдди Хэссон, Сара Дежарден, Энука Окума, Крэйг Арнольд, Таннер Стайн, Киган Майкл-Ки, Мисси Пайл, Мэтт Гордон, Дэвид Джеймс Эллиот, Каллум Кит Ренни, Дэниел Маслани, Женевьев Канг, Гэбриел Дарку, Эйдан Дивайн, Шон Дойл, Тара Розлинг, Гордон Харпер, Дилан Троубридж, Кион Александр, Рафаэль Берджерон-Лапуант, Роуан Мед, Джеффри Паунсент, Пола Бодро, Майкл Ревентар, Рейчел Уилсон и др.

Описание:
16-летняя бунтарка Генриетта Коул всегда чувствовала, что отличается от своих сверстников, и мечтала сбежать из своего маленького городка. Однажды Генри узнаёт, что обладает экстраординарными способностями: она может телепортироваться.



Качество: WEBRip-AVC (Источник: Impulse.S01.2160p.RED.WEBRip.AAC5.1.VP9-NTb)
Формат: MKV
Видео: x264, 1152x576 (2.000), 23.976 fps, ~1775 kbps avg, 0.112 bit/pixel
Аудио: Russian 48.0 KHz, AC3, 3/2 (L,C,R,l,r) + LFE ch, ~384.00 kbps avg |Кубик в кубе|
Субтитры: отсутствуют
Рип - whip93.
Работа со звуком - messafan, whip93.
General
Unique ID : 55229630645446393687374238010525146285 (0x298CD706D0D9D1319E6ADAAC5DC8DCAD)
Complete name : D:\Фильмы\Impulse - The Complete 1st Season - whip93\Impulse.S01E01.Pilot.WEBRip.DD5.1.x264.-whip93.mkv
Format : Matroska
Format version : Version 4 / Version 2
File size : 731 MiB
Duration : 47 min 17 s
Overall bit rate : 2 160 kb/s
Movie name : Импульс | Impulse (S01E01) - Release by whip93
Encoded date : UTC 2018-06-16 06:32:07
Writing application : mkvmerge v22.0.0 ('At The End Of The World') 64-bit
Writing library : libebml v1.3.5 + libmatroska v1.4.8

Video
ID : 1
Format : AVC
Format/Info : Advanced Video Codec
Format profile : High@L4.1
Format settings : CABAC / 12 Ref Frames
Format settings, CABAC : Yes
Format settings, ReFrames : 12 frames
Codec ID : V_MPEG4/ISO/AVC
Duration : 47 min 17 s
Bit rate : 1 775 kb/s
Width : 1 152 pixels
Height : 576 pixels
Display aspect ratio : 2.000
Frame rate mode : Constant
Frame rate : 23.976 (24000/1001) FPS
Color space : YUV
Chroma subsampling : 4:2:0
Bit depth : 8 bits
Scan type : Progressive
Bits/(Pixel*Frame) : 0.112
Stream size : 600 MiB (82%)
Title : Encoded by whip93
Writing library : x264 core 155 r2867+82 a249126 t_mod_Custom_2 [8-bit@all X86_64]
Encoding settings : cabac=1 / ref=12 / deblock=1:-3:-3 / analyse=0x3:0x133 / me=umh / subme=10 / psy=1 / fade_compensate=0.00 / psy_rd=1.00:0.08 / mixed_ref=0 / me_range=32 / chroma_me=1 / trellis=2 / 8x8dct=1 / cqm=0 / deadzone=21,11 / fast_pskip=1 / chroma_qp_offset=-3 / threads=12 / lookahead_threads=3 / sliced_threads=0 / nr=0 / decimate=1 / interlaced=0 / bluray_compat=0 / constrained_intra=0 / fgo=0 / bframes=14 / b_pyramid=2 / b_adapt=2 / b_bias=0 / direct=1 / weightb=1 / open_gop=0 / weightp=2 / keyint=250 / keyint_min=23 / scenecut=40 / intra_refresh=0 / rc_lookahead=90 / rc=crf / mbtree=0 / crf=20.0000 / qcomp=0.72 / qpmin=0:0:0 / qpmax=69:69:69 / qpstep=4 / vbv_maxrate=62500 / vbv_bufsize=78125 / crf_max=0.0 / nal_hrd=none / filler=0 / ip_ratio=1.40 / pb_ratio=1.30 / aq=3:0.80 / aq-sensitivity=10.00 / aq-factor=1.00:1.00:1.00 / aq2=0 / aq3=0
Language : English
Default : Yes
Forced : No
Color range : Limited
Color primaries : BT.709
Transfer characteristics : BT.709
Matrix coefficients : BT.709

Audio
ID : 2
Format : AC-3
Format/Info : Audio Coding 3
Codec ID : A_AC3
Duration : 47 min 17 s
Bit rate mode : Constant
Bit rate : 384 kb/s
Channel(s) : 6 channels
Channel positions : Front: L C R, Side: L R, LFE
Sampling rate : 48.0 kHz
Frame rate : 31.250 FPS (1536 SPF)
Bit depth : 16 bits
Compression mode : Lossy
Stream size : 130 MiB (18%)
Title : DVO (Кубик в кубе)
Language : Russian
Service kind : Complete Main
Default : Yes
Forced : No
Когда раздача ведётся путём добавления новых серий, при каждом добавлении создаётся новый торрент. Чтобы начать докачку новой серии, пользователям необходимо сделать следующее:
(1) остановить скачивание,
(2) удалить старый торрент у себя из клиента (старые серии удалять не надо),
(3) скачать новый торрент и запустить его у себя в клиенте вместо старого, при этом указать клиенту путь в старую папку, куда и должно происходить скачивание новых серий.
Ваш клиент при этом должен произвести хеширование (проверку) старой папки (если не производит сам - помогите ему сделать это), и будет докачивать только те серии, которых у вас ещё нет. Старые серии при этом не удаляются, а продолжают раздаваться!
Если вы уже удалили старые серии, то предотвратить повторную закачку старых серий можно, отжав галочку в соответствующих местах при запуске нового торрента. По возможности, желательно не удалять старые серии как можно дольше, чтобы релизер не столько продолжал раздавать старые серии, а смог сконцентрироваться на новых.



Скачать Импульс.Impulse.(Сезон.01.серии.01-03.из.10).(Джеффри.Либер.Jeffrey.Lieber).[2018.фантастика.боевик.WEBRip-AVC].[DVO].(Кубик.в.кубе).torrent без регистрации
Золото ЗОЛОТАЯ РАЗДАЧА! СКАЧАННОЕ НЕ ЗАСЧИТЫВАЕТСЯ! Золото
Дата: Зарегистрирован   [ Тип: внутренний ] Как тут cкачать?
MAGNET ссылка
MAGNET ссылка


Скачать .torrent

19 KB

Статус: проверено DHT
Скачан: торрент - 82 раз, раздача полностью - 3 раз
Размер: 1,85 GB
Оценка:  - (Голосов: 0)
Поблагодарили: 0
Поделиться ссылкой на эту раздачу с друзьями:
В контактеFacebookОдноклассникиTwitterLivejournalМой МирLiveinternet
 

 
Показать сообщения:    


Вы не можете начинать темы
Вы не можете отвечать на сообщения
Вы не можете редактировать свои сообщения
Вы не можете удалять свои сообщения
Вы не можете голосовать в опросах
Вы не можете прикреплять файлы к сообщениям
Вы можете скачивать файлы