Loading...
Error

Скачать Аннигиляция / Annihilation (Алекс Гарленд) [2018, ужасы, фантастика, триллер, драма, детектив, приключения, BDRip] [1080p] [MVO (Jaskier)] [R.G. Goldenshara] торрент без регистрации

Статистика раздачи
Размер:  4,32 GB   |    Скачан:  130 раз
Сидов:  1  [  0 KB/s  ]  
 
 
 
Автор Сообщение

sobmaster

[] 



Аннигиляция
Annihilation




Год выпуска: 2018
Страна: Великобритания , США
Выпущено: Sepia Films
Слоган: «Fear What's Inside»
Жанр: ужасы, фантастика, триллер, драма, детектив, приключения

Продолжительность: 01:55:29
Перевод: Профессиональный (многоголосый, закадровый) (Jaskier)
Режиссер: Алекс Гарленд
Сценарий: Алекс Гарленд, Джефф Вандермеер
Продюсер: Джо Берн, Эли Буш, Дэвид Эллисон
Оператор: Роберт Харди
Композитор: Джофф Барроу, Бен Салисбери
Художник: Марк Дигби, Гарет Казинс, Лорейн Досс,
Монтаж: Барни Пиллинг
В ролях:


Натали Портман (Lena), Бенедикт Вонг (Lomax), Соноя Мидзуно (Humanoid & Katie (Med Student)), Дэвид Гяси (Daniel), Оскар Айзек (Kane), Джон Шваб (Paramedic), Дженнифер Джейсон Ли (Dr Ventress), Джина Родригез (Anya Thorensen), Тува Новотны (Cass Sheppard), Тесса Томпсон (Josie Radek), Сэмми Хейман (Mayer), Джош Дэнфорд (Shelley), Кристен МакГэррити (Lena Double), Майрид Армстронг (Scientist), Кола Бокинни (Peyton)
Бюджет: $40 000 000
Сборы в США: $32 732 301
Мировая премьера: 13 февраля 2018
MPAA: - Лицам до 17 лет обязательно присутствие взрослого

Описание: На Землю прилетает маленький метеорит и становится причиной больших перемен. Он врезается в одиноко стоящий маяк, что загадочным образом меняет территорию вокруг.
Профессор биологии Лина уже год страдает от потери мужа-военного. Кейн отправился на очередное секретное задание, но так и не вернулся — жив ли, погиб — женщина не знает, пока однажды дезориентированный и слегка бледный супруг внезапно не появляется на пороге их спальни. Радость длится недолго — у мужчины начинаются судороги и множественные кровотечения, а по дороге в больницу машину скорой помощи тормозят военные. Лина приходит в себя на секретной базе рядом с той самой загадочной зоной, куда уже отправлялись многочисленные экспедиции, но вернулся, оказывается, только один человек — её Кейн.


Качество: BDRip 1080p
Контейнер: MKV
Видео: AVC, 1920x802 (2.40:1), 4992 kbps, 23.976 fps, 0.135 bpp
Аудио: русский /; AC3 /; 5.1 /; 48 kHz /; 384 kbps /; 16 bit; ||
Субтитры #1: русские (Full [Focs])
Субтитры #2: русские (Full v.2)
Субтитры #3: английские (Full)
Навигация по главам: есть

АНОНСЫ ПОПУЛЯРНЫХ РАЗДАЧ

  • Фильм основан на первой книге трилогии «Southern Reach» Джеффа Вандермеера, которая увидела свет в феврале 2014 года.
  • Прежде чем утвердить на роль психолога Дженнифер Джейсон Ли, авторы фильма рассматривали на эту роль кандидатуру Фрэнсис МакДорманд.
  • Съёмки фильма прошли в июле 2016 года в графстве Норфолк на востоке Англии.
  • Оскар Айзек и Соноя Мидзуно снимались в научно-фантастическом триллере «Из машины» (2015), ставшем режиссёрским дебютом Алекса Гарленда.

Код:

General
Unique ID                   : 222994487866754254901703607689527918336 (0xA7C32D18ED027B6EA8F28F57033F7F00)
Complete name               : E:\Мои рипы\Аннигиляция.2018.BDRip.1080p.MVO.mkv
Format                      : Matroska
Format version              : Version 4 / Version 2
File size                   : 4.32 GiB
Duration                    : 1 h 55 min
Overall bit rate            : 5 361 kb/s
Movie name                  : Annihilation 2018 from ExKinoRay
Encoded date                : UTC 2018-06-19 21:56:17
Writing application         : mkvmerge v6.8.0 ('Theme for Great Cities') 32bit built on Mar  2 2014 21:27:07
Writing library             : libebml v1.3.0 + libmatroska v1.4.1

Video
ID                          : 1
Format                      : AVC
Format/Info                 : Advanced Video Codec
Format profile              : High@L4.1
Format settings             : CABAC / 5 Ref Frames
Format settings, CABAC      : Yes
Format settings, ReFrames   : 5 frames
Codec ID                    : V_MPEG4/ISO/AVC
Duration                    : 1 h 55 min
Bit rate                    : 4 992 kb/s
Width                       : 1 920 pixels
Height                      : 802 pixels
Display aspect ratio        : 2.40:1
Frame rate mode             : Constant
Frame rate                  : 23.976 FPS
Color space                 : YUV
Chroma subsampling          : 4:2:0
Bit depth                   : 8 bits
Scan type                   : Progressive
Bits/(Pixel*Frame)          : 0.135
Stream size                 : 3.93 GiB (91%)
Writing library             : x264 core 130 r2273 b3065e6
Encoding settings           : cabac=1 / ref=5 / deblock=1:-3:-3 / analyse=0x3:0x113 / me=umh / subme=11 / psy=1 / psy_rd=1.00:0.15 / mixed_ref=1 / me_range=48 / chroma_me=1 / trellis=2 / 8x8dct=1 / cqm=0 / deadzone=21,11 / fast_pskip=0 / chroma_qp_offset=-4 / threads=6 / lookahead_threads=1 / sliced_threads=0 / nr=0 / decimate=0 / interlaced=0 / bluray_compat=0 / constrained_intra=0 / bframes=8 / b_pyramid=2 / b_adapt=2 / b_bias=0 / direct=2 / weightb=1 / open_gop=0 / weightp=2 / keyint=250 / keyint_min=23 / scenecut=40 / intra_refresh=0 / rc=2pass / mbtree=0 / bitrate=4992 / ratetol=1.0 / qcomp=0.60 / qpmin=0 / qpmax=69 / qpstep=4 / cplxblur=20.0 / qblur=0.5 / ip_ratio=1.40 / pb_ratio=1.30 / aq=2:1.00
Language                    : English
Default                     : Yes
Forced                      : No
Color range                 : Limited
Color primaries             : Generic film
Matrix coefficients         : YCgCo

Audio
ID                          : 2
Format                      : AC-3
Format/Info                 : Audio Coding 3
Codec ID                    : A_AC3
Duration                    : 1 h 55 min
Bit rate mode               : Constant
Bit rate                    : 384 kb/s
Channel(s)                  : 6 channels
Channel positions           : Front: L C R, Side: L R, LFE
Sampling rate               : 48.0 kHz
Frame rate                  : 31.250 FPS (1536 SPF)
Bit depth                   : 16 bits
Compression mode            : Lossy
Stream size                 : 317 MiB (7%)
Title                       : MVO [Jaskier]
Language                    : Russian
Service kind                : Complete Main
Default                     : Yes
Forced                      : No

Text #1
ID                          : 3
Format                      : UTF-8
Codec ID                    : S_TEXT/UTF8
Codec ID/Info               : UTF-8 Plain Text
Title                       : Full [Focs]
Language                    : Russian
Default                     : No
Forced                      : No

Text #2
ID                          : 4
Format                      : UTF-8
Codec ID                    : S_TEXT/UTF8
Codec ID/Info               : UTF-8 Plain Text
Title                       : Full v.2
Language                    : Russian
Default                     : No
Forced                      : No

Text #3
ID                          : 5
Format                      : UTF-8
Codec ID                    : S_TEXT/UTF8
Codec ID/Info               : UTF-8 Plain Text
Title                       : Full
Language                    : English
Default                     : No
Forced                      : No

Menu
00:00:00.000                : en:00:00:00.000
00:05:09.309                : en:00:05:09.309
00:11:39.157                : en:00:11:39.157
00:17:06.692                : en:00:17:06.692
00:24:08.656                : en:00:24:08.656
00:28:59.446                : en:00:28:59.446
00:37:24.242                : en:00:37:24.242
00:41:59.517                : en:00:41:59.517
00:49:11.448                : en:00:49:11.448
00:56:06.405                : en:00:56:06.405
01:03:22.298                : en:01:03:22.298
01:10:25.012                : en:01:10:25.012
01:17:21.929                : en:01:17:21.929
01:22:20.477                : en:01:22:20.477
01:30:26.296                : en:01:30:26.296
01:38:48.589                : en:01:38:48.589
01:43:58.357                : en:01:43:58.357
01:48:14.279                : en:01:48:14.279






Скачать Аннигиляция.Annihilation.(Алекс.Гарленд).[2018.ужасы.фантастика.триллер.драма.детектив.приключения.BDRip].[1080p].[MVO.(Jaskier)].[R.G.Goldenshara].torrent без регистрации
Золото ЗОЛОТАЯ РАЗДАЧА! СКАЧАННОЕ НЕ ЗАСЧИТЫВАЕТСЯ! Золото
Дата: Зарегистрирован   [ Тип: внутренний ] Как тут cкачать?
MAGNET ссылка
MAGNET ссылка


Скачать .torrent

11 KB

Статус: Τ временная раздача
Скачан: торрент - 130 раз, раздача полностью - 56 раз
Размер: 4,32 GB
Оценка:  4,6 (Голосов: 5)
Поблагодарили: 10
Поделиться ссылкой на эту раздачу с друзьями:
В контактеFacebookОдноклассникиTwitterLivejournalМой МирLiveinternet
 

 

OlegRo

[] 

Классный фильм! ay Не ожидал, что так понравится. Смотрел ночью, в темноте, на большом экране. Атмосфера фильма шикарная. Спасибо огромное!
 
Показать сообщения:    


Вы не можете начинать темы
Вы не можете отвечать на сообщения
Вы не можете редактировать свои сообщения
Вы не можете удалять свои сообщения
Вы не можете голосовать в опросах
Вы не можете прикреплять файлы к сообщениям
Вы можете скачивать файлы