Loading...
Error

Скачать Пастушья кукла (Зеннентунчи) / Sennentuntschi (Михаэль Штайнер) [2010, ужасы, детектив, BDRip] [1080p] [DVO (Ddok и Карнелия)] [R.G. Goldenshara] торрент без регистрации

Статистика раздачи
Размер:  4,37 GB   |    Скачан:  69 раз
Сидов:  2  [  0 KB/s  ]  
 
 
 
Автор Сообщение

sobmaster

[] 



Пастушья кукла (Зеннентунчи)
Sennentuntschi




Год выпуска: 2010
Страна: Швейцария
Выпущено: Kontraproduktion AG, Superfilm
Жанр: ужасы, детектив

Продолжительность: 01:55:01
Перевод: Любительский (двухголосый, закадровый) (Ddok и Карнелия)
Режиссер: Михаэль Штайнер
Сценарий: Штефани Япп, Майкл Саутер, Михаэль Штайнер
Продюсер: Берндт Бюргенер, Бруно Зееман, Штефан Барт
Оператор: Паскаль Вальдер
Композитор: Адриан Фрутигер
Художник: Геральд Дамовски, Паскаль Зутер
Монтаж: Уэли Кристен, Беньямин Фойтер
В ролях:


Роксана Мескида, Николас Офчарек (Sebastian Reusch), Андреа Цогг (Erwin), Карлос Леаль (Martin), Йоэль Басман (Albert), Ханспетер Мюллер (Notter), Ребекка Индермаур (Theres), Уэли Ягги (Pfarrer Salis), Петер Йеклин (Dr. Zingg), Даниэль Рор (Bauer Stähli), Паула Мария (Bibi), Биргит С. Краммер (Birgit), Марк Кун (Kommissar), Штефания Бергер (Gerichtsmedizinerin), Флориан Нуссбаумер (Polizist)
Мировая премьера: 23 сентября 2010
MPAA: - Лицам до 17 лет обязательно присутствие взрослого

Описание: Швейцарские Альпы, 1975 год. Сразу после самоубийства местного священника в горной деревне Трепунт появляется загадочная девушка. Ведёт она себя крайне странно, не разговаривает и к тому же до смерти боится крестов и распятий, благодаря чему жители начинают считать её ведьмой.
Единственным, кто встаёт на защиту девицы, становится полицейский Ройш. Вскоре в Трепунте происходит несчастный случай с женой мэра, в котором вновь оказывается замешана гостья. После этого сдерживать недовольство суеверной толпы Ройшу становится всё сложнее.


Качество: BDRip 1080p
Контейнер: MKV
Видео: AVC, 1920x816 (2.35:1), 5248 kbps, 23.976 fps, 0.140 bpp
Аудио: русский /; AC3 /; 2.0 /; 48 kHz /; 192 kbps /; 16 bit; ||
Субтитры: английские

АНОНСЫ ПОПУЛЯРНЫХ РАЗДАЧ


Код:

General
Unique ID                                : 182097597965787007551655574603896018784 (0x88FEB8BF848EA9C591AEDA4516995760)
Complete name                            : E:\Мои рипы\Пастушья кукла.2010.BDRip.1080p.DVO.mkv
Format                                   : Matroska
Format version                           : Version 4 / Version 2
File size                                : 4.37 GiB
Duration                                 : 1h 55mn
Overall bit rate                         : 5 441 Kbps
Encoded date                             : UTC 2018-06-25 03:08:37
Writing application                      : mkvmerge v6.8.0 ('Theme for Great Cities') 32bit built on Mar  2 2014 21:27:07
Writing library                          : libebml v1.3.0 + libmatroska v1.4.1

Video
ID                                       : 1
Format                                   : AVC
Format/Info                              : Advanced Video Codec
Format profile                           : High@L4.1
Format settings, CABAC                   : Yes
Format settings, ReFrames                : 5 frames
Codec ID                                 : V_MPEG4/ISO/AVC
Duration                                 : 1h 55mn
Bit rate                                 : 5 248 Kbps
Width                                    : 1 920 pixels
Height                                   : 816 pixels
Display aspect ratio                     : 2.35:1
Frame rate mode                          : Constant
Frame rate                               : 23.976 fps
Color space                              : YUV
Chroma subsampling                       : 4:2:0
Bit depth                                : 8 bits
Scan type                                : Progressive
Bits/(Pixel*Frame)                       : 0.140
Stream size                              : 4.13 GiB (94%)
Writing library                          : x264 core 130 r2273 b3065e6
Encoding settings                        : cabac=1 / ref=5 / deblock=1:-3:-3 / analyse=0x3:0x113 / me=umh / subme=11 / psy=1 / psy_rd=1.00:0.15 / mixed_ref=1 / me_range=48 / chroma_me=1 / trellis=2 / 8x8dct=1 / cqm=0 / deadzone=21,11 / fast_pskip=0 / chroma_qp_offset=-4 / threads=6 / lookahead_threads=1 / sliced_threads=0 / nr=0 / decimate=0 / interlaced=0 / bluray_compat=0 / constrained_intra=0 / bframes=8 / b_pyramid=2 / b_adapt=2 / b_bias=0 / direct=2 / weightb=1 / open_gop=0 / weightp=2 / keyint=250 / keyint_min=23 / scenecut=40 / intra_refresh=0 / rc=2pass / mbtree=0 / bitrate=5248 / ratetol=1.0 / qcomp=0.60 / qpmin=0 / qpmax=69 / qpstep=4 / cplxblur=20.0 / qblur=0.5 / ip_ratio=1.40 / pb_ratio=1.30 / aq=2:1.00
Language                                 : English
Default                                  : Yes
Forced                                   : No
Color primaries                          : Generic film
Matrix coefficients                      : YCgCo

Audio
ID                                       : 2
Format                                   : AC-3
Format/Info                              : Audio Coding 3
Mode extension                           : CM (complete main)
Format settings, Endianness              : Big
Codec ID                                 : A_AC3
Duration                                 : 1h 55mn
Bit rate mode                            : Constant
Bit rate                                 : 192 Kbps
Channel(s)                               : 2 channels
Channel positions                        : Front: L R
Sampling rate                            : 48.0 KHz
Bit depth                                : 16 bits
Compression mode                         : Lossy
Stream size                              : 158 MiB (4%)
Title                                    : DVO
Language                                 : Russian
Default                                  : Yes
Forced                                   : No

Text
ID                                       : 3
Format                                   : UTF-8
Codec ID                                 : S_TEXT/UTF8
Codec ID/Info                            : UTF-8 Plain Text
Language                                 : English
Default                                  : No
Forced                                   : No






Скачать Пастушья.кукла.(Зеннентунчи).Sennentuntschi.(Михаэль.Штайнер).[2010.ужасы.детектив.BDRip].[1080p].[DVO.(Ddok.и.Карнелия)].[R.G.Goldenshara].torrent без регистрации
Золото ЗОЛОТАЯ РАЗДАЧА! СКАЧАННОЕ НЕ ЗАСЧИТЫВАЕТСЯ! Золото
Дата: Зарегистрирован   [ Тип: внутренний ] Как тут cкачать?
MAGNET ссылка
MAGNET ссылка


Скачать .torrent

11 KB

Статус: проверено DHT
Скачан: торрент - 69 раз, раздача полностью - 25 раз
Размер: 4,37 GB
Оценка:  5 (Голосов: 4)
Поблагодарили: 8
Поделиться ссылкой на эту раздачу с друзьями:
В контактеFacebookОдноклассникиTwitterLivejournalМой МирLiveinternet
 

 

копылов геннадий николаев

[] 

Спасибо! Отличный и неординарный фильм!!! az
 

sobmaster

[] 

Пожалуйста! az Европейское кино всегда неординарно, это Вам не Голливуд с кучей штампов!
 
Показать сообщения:    


Вы не можете начинать темы
Вы не можете отвечать на сообщения
Вы не можете редактировать свои сообщения
Вы не можете удалять свои сообщения
Вы не можете голосовать в опросах
Вы не можете прикреплять файлы к сообщениям
Вы можете скачивать файлы