Loading...
Error

Скачать Голиаф / Goliath (Сезон 02) (Лоуренс Триллинг, Дэнни Гордон) [2018, Драма, WEBRip] [MVO] (NewStudio) + [Original] + Sub (rus, eng) торрент без регистрации

Статистика раздачи
Размер:  4,68 GB   |    Скачан:  104 раза
Сидов:  1  [  8 KB/s  ]  
 
 
 
Автор Сообщение

leon030982

[] 

Голиаф / Goliath
Год выпуска: 2018
Страна: США
Жанр: Драма
Продолжительность: 00:49:30
Перевод: Профессиональный (многоголосый закадровый) NewStudio

Режиссёр: Лоуренс Триллинг, Дэнни Гордон

В ролях: Билли Боб Торнтон, Таня Рэймонд, Нина Арианда, Диана Хоппер, Джули Бристер, Ана де ла Регера, Марк Дюпласс, Мэттью Дель Негро, Моррис Честнат, Диего Джозеф и др.

Описание: Главный герой сериала – опальный адвокат Билли МакБрайд – переживает нелегкий период, пытается наладить отношения с дочерью и бывшей женой, восстановить карьеру и хоть как-то заработать. Неожиданно ему выпадает шанс изменить свою жизнь и вернуть себе былую славу.



Качество: WEBRip
Формат: AVI
Видео: 720x352, 23.976 fps, XviD build 67, 1347 Kbps, 0.22 bit/pixel
Аудио 1: MP3, 48 kHz, 2 ch, 128 kbps, CBR - Rus
Аудио 2: MP3, 48 kHz, 2 ch, 128 kbps, CBR - Eng
Субтитры: русские, английские
Автор перевода: Юля Мейер, Александр Калинин, Булат Карабасов, Александра Иванова
Редактор: Александра Цернант
Рип: DriverV
General
Complete name :Downloads\Голиаф (сезон 2) Goliath (2018) WEBRip - NewStudio
Format : AVI
Format/Info : Audio Video Interleave
File size : 572 MiB
Duration : 49mn 30s
Overall bit rate : 1 617 Kbps
Writing application : VirtualDubModRus 1.5.10.2 (build 2542/release)
Writing library : VirtualDubMod build 2542/release
Video #0
ID : 0
Format : MPEG-4 Visual
Format profile : Advanced Simple@L5
Format settings, BVOP : 2
Format settings, QPel : No
Format settings, GMC : No warppoints
Format settings, Matrix : Default (H.263)
Codec ID : XVID
Codec ID/Hint : XviD
Duration : 49mn 30s
Bit rate : 1 347 Kbps
Width : 720 pixels
Height : 352 pixels
Display aspect ratio : 2.045
Frame rate : 23.976 fps
Color space : YUV
Chroma subsampling : 4:2:0
Bit depth : 8 bits
Scan type : Progressive
Compression mode : Lossy
Bits/(Pixel*Frame) : 0.222
Stream size : 477 MiB (83%)
Writing library : XviD 67
Audio #1
ID : 1
Format : MPEG Audio
Format version : Version 1
Format profile : Layer 3
Mode : Joint stereo
Codec ID : 55
Codec ID/Hint : MP3
Duration : 49mn 30s
Bit rate mode : Constant
Bit rate : 128 Kbps
Channel(s) : 2 channels
Sampling rate : 48.0 KHz
Compression mode : Lossy
Stream size : 45.3 MiB (8%)
Alignment : Aligned on interleaves
Interleave, duration : 42 ms (1.00 video frame)
Interleave, preload duration : 504 ms
Audio #2
ID : 2
Format : MPEG Audio
Format version : Version 1
Format profile : Layer 3
Mode : Joint stereo
Codec ID : 55
Codec ID/Hint : MP3
Duration : 49mn 30s
Bit rate mode : Constant
Bit rate : 128 Kbps
Channel(s) : 2 channels
Sampling rate : 48.0 KHz
Compression mode : Lossy
Stream size : 45.3 MiB (8%)
Alignment : Aligned on interleaves
Interleave, duration : 42 ms (1.00 video frame)
Interleave, preload duration : 504 ms
(1) остановить скачивание,
(2) удалить старый торрент у себя из клиента (старые серии удалять не надо),
(3) скачать новый торрент и запустить его у себя в клиенте вместо старого, при этом указать клиенту путь в старую папку куда и должно происходить скачивание новых серий.
Ваш клиент при этом должен произвести хеширование (проверку) старой папки (если не производит сам - помогите ему сделать это), и будет докачивать только те серии которых у вас ещё нет. Старые серии при этом не удаляются, а продолжают раздаваться!
Eсли вы уже удалили старые серии, то предотвратить повторную закачку старых серий можно, отжав галочку в соответсвующих местах при запуске нового торрента. По возможности, желательно не удалять старые серии как можно дольше чтобы релизёр не столько продолжал раздавать старые серии, а смог сконцентрироваться на новых.



Скачать Голиаф.Goliath.(Сезон.02).(Лоуренс.Триллинг.Дэнни.Гордон).[2018.Драма.WEBRip].[MVO].(NewStudio).+.[Original].+.Sub.(rus.eng).torrent без регистрации
Золото ЗОЛОТАЯ РАЗДАЧА! СКАЧАННОЕ НЕ ЗАСЧИТЫВАЕТСЯ! Золото
Дата: Зарегистрирован   [ Тип: внутренний ] Как тут cкачать?
MAGNET ссылка
MAGNET ссылка


Скачать .torrent

15 KB

Статус: проверено DHT
Скачан: торрент - 104 раз, раздача полностью - 8 раз
Размер: 4,68 GB
Оценка:  - (Голосов: 0)
Поблагодарили: 1
Поделиться ссылкой на эту раздачу с друзьями:
В контактеFacebookОдноклассникиTwitterLivejournalМой МирLiveinternet
 

 
Показать сообщения:    


Вы не можете начинать темы
Вы не можете отвечать на сообщения
Вы не можете редактировать свои сообщения
Вы не можете удалять свои сообщения
Вы не можете голосовать в опросах
Вы не можете прикреплять файлы к сообщениям
Вы можете скачивать файлы