Loading...
Error

Скачать Кодекс Готти / Gotti (Кевин Коннолли) [2018, драма, криминал, биография, WEB-DL 1080p] [MVO] (HDRezka Studio) торрент без регистрации

Статистика раздачи
Размер:  5,13 GB   |    Скачан:  210 раз
Сидов:  5  [  18 KB/s  ]  
 
 
 
Автор Сообщение

leon030982

[] 

Кодекс Готти / Gotti


Год выпуска: 2018
Страна: Канада, США
Жанр: драма, криминал, биография
Продолжительность: 01:49:34
Перевод : Профессиональный (многоголосый) [HDRezka Studio]
Субтитры: Французские, английские

Режиссер: Кевин Коннолли

В ролях: Джон Траволта, Келли Престон, Стейси Кич, Спенсер Лофранко, Прюитт Тейлор Винс, Эшли Кусато, Лидия Халл, Уильям ДеМео, Крис Малки, Лео Росси

Описание: Джон Готти начинал свою криминальную карьеру, выполняя самые простые поручения. Позже он по праву стал ключевым человеком в криминальном мире. Его семья является самой влиятельной и богатой в Нью-Йорке, финансовое благополучие и власть ставится выше моральных аспектов. Однажды дело Готти должно быть передано наследнику, однако неожиданно отец сталкивается с отказом сына иметь причастность к миру криминала. Но как поступит Готти-младший, когда над его семьёй нависнет угроза?



Файл
Качество : WEB-DL 1080p
Формат видео : MKV
Видео : MPEG-4 AVC, 1920x800, 5878 Mbit/s, 23.976 fps
Звук 1: 48 kHz, AC3, 2.0, 192 Kbps | HDRezka Studio | RUS
Звук 2: 48 kHz, E-AC3, 5.1, 640 Kbps | Оригинал | ENG

Торент обновлен! заменен перевод
General
Unique ID : 171763068966660532543524804191859945834 (0x81385D2118E632939ED22411FE0EB16A)
Complete name : D:Video111Gotti.2018.AMZN.WEB-DL.1080p.ExKinoRay.mkv
Format : Matroska
Format version : Version 4 / Version 2
File size : 5.13 GiB
Duration : 1 h 49 min
Overall bit rate mode : Variable
Overall bit rate : 6 708 kb/s
Movie name : Gotti 2018 AMZN from ExKinoRay
Encoded date : UTC 2018-07-09 15:01:30
Writing application : mkvmerge v7.3.0 ('Nouages') 64bit built on Oct 22 2014 18:53:34
Writing library : libebml v1.3.0 + libmatroska v1.4.1

Video
ID : 1
Format : AVC
Format/Info : Advanced Video Codec
Format profile : High@L4
Format settings : CABAC / 4 Ref Frames
Format settings, CABAC : Yes
Format settings, ReFrames : 4 frames
Codec ID : V_MPEG4/ISO/AVC
Duration : 1 h 49 min
Bit rate mode : Variable
Bit rate : 5 873 kb/s
Maximum bit rate : 15.0 Mb/s
Width : 1 920 pixels
Height : 800 pixels
Display aspect ratio : 2.40:1
Frame rate mode : Constant
Frame rate : 23.976 (24000/1001) FPS
Color space : YUV
Chroma subsampling : 4:2:0
Bit depth : 8 bits
Scan type : Progressive
Bits/(Pixel*Frame) : 0.159
Stream size : 4.50 GiB (88%)
Language : English
Default : Yes
Forced : No
Color range : Limited
Color primaries : BT.709
Transfer characteristics : BT.709
Matrix coefficients : BT.709

Audio #1
ID : 2
Format : AC-3
Format/Info : Audio Coding 3
Codec ID : A_AC3
Duration : 1 h 49 min
Bit rate mode : Constant
Bit rate : 192 kb/s
Channel(s) : 2 channels
Channel positions : Front: L R
Sampling rate : 48.0 kHz
Frame rate : 31.250 FPS (1536 SPF)
Bit depth : 16 bits
Compression mode : Lossy
Stream size : 150 MiB (3%)
Title : MVO [HDRezka Studio]
Language : Russian
Service kind : Complete Main
Default : Yes
Forced : Yes

Audio #2
ID : 3
Format : E-AC-3
Format/Info : Enhanced Audio Coding 3
Codec ID : A_EAC3
Duration : 1 h 49 min
Bit rate mode : Constant
Bit rate : 640 kb/s
Channel(s) : 6 channels
Channel positions : Front: L C R, Side: L R, LFE
Sampling rate : 48.0 kHz
Frame rate : 187.500 FPS (256 SPF)
Compression mode : Lossy
Stream size : 502 MiB (10%)
Title : Original
Language : English
Service kind : Complete Main
Default : No
Forced : No

Text #1
ID : 4
Format : UTF-8
Codec ID : S_TEXT/UTF8
Codec ID/Info : UTF-8 Plain Text
Duration : 1 h 40 min
Bit rate : 72 b/s
Count of elements : 1466
Stream size : 53.9 KiB (0%)
Title : Full
Language : English
Default : No
Forced : No

Text #2
ID : 5
Format : UTF-8
Codec ID : S_TEXT/UTF8
Codec ID/Info : UTF-8 Plain Text
Duration : 1 h 43 min
Bit rate : 65 b/s
Count of elements : 1507
Stream size : 49.3 KiB (0%)
Title : Full
Language : French
Default : No
Forced : No

Text #3
ID : 6
Format : UTF-8
Codec ID : S_TEXT/UTF8
Codec ID/Info : UTF-8 Plain Text
Duration : 1 h 47 min
Bit rate : 80 b/s
Count of elements : 1838
Stream size : 63.7 KiB (0%)
Title : SDH
Language : French
Default : No
Forced : No



Скачать Кодекс.Готти.Gotti.(Кевин.Коннолли).[2018.драма.криминал.биография.WEB-DL.1080p].[MVO].(HDRezka.Studio).torrent без регистрации
Золото ЗОЛОТАЯ РАЗДАЧА! СКАЧАННОЕ НЕ ЗАСЧИТЫВАЕТСЯ! Золото
Дата: Зарегистрирован   [ Тип: внутренний ] Как тут cкачать?
MAGNET ссылка
MAGNET ссылка


Скачать .torrent

8 KB

Статус: проверено DHT
Скачан: торрент - 210 раз, раздача полностью - 68 раз
Размер: 5,13 GB
Оценка:  - (Голосов: 0)
Поблагодарили: 3
Поделиться ссылкой на эту раздачу с друзьями:
В контактеFacebookОдноклассникиTwitterLivejournalМой МирLiveinternet
 

 
Показать сообщения:    


Вы не можете начинать темы
Вы не можете отвечать на сообщения
Вы не можете редактировать свои сообщения
Вы не можете удалять свои сообщения
Вы не можете голосовать в опросах
Вы не можете прикреплять файлы к сообщениям
Вы можете скачивать файлы