Loading...
Error

Скачать Люк Кейдж / Luke Cage (сезон 02, серии 01-03 из 13) (Энди Годдард, Марк Йобст, Кларк Джонсон) [2018, фантастика, боевик, триллер, драма, WEBRip] [MVO] (LostFilm) торрент без регистрации

Статистика раздачи
Размер:  1,82 GB   |    Скачан:  44 раза
Сидов:  1  [  0 KB/s  ]  
 
 
 
Автор Сообщение

leon030982

[] 

Люк Кейдж / Luke Cage


Год выпуска: 2018
Страна: США
Жанр: фантастика, боевик, триллер, драма
Продолжительность: ~ 00:56:00
Перевод: Профессиональный (многоголосый закадровый) LostFilm

Режиссёры: Энди Годдард, Марк Йобст, Кларк Джонсон

В ролях: Майк Колтер, Симон Миссик, Тео Росси, Элфри Вудард, Джастин Суэйн, Джон Кларенс Стюарт, Шон Рейнгголд, Розарио Доусон, Карен Питтман, Рон Сепас Джонс

Описание: Оказавшись по ложному обвинению в тюрьме, Карл Лукас становится невольным участником научного эксперимента, в результате которого он обрел огромную силу и пуленепробиваемую кожу. Эксперимент завершился разгромом лаборатории, и Карл смог сбежать. Поскольку он все еще разыскивается, Карл берет новое имя — Люк Кейдж — и возвращается в родной Гарлем. Он живет тихо, старается не привлекать к себе внимания. Люк Кейдж — обычный парень, который работает уборщиком в парикмахерской «У Папаши». Однако в районе все неспокойно. Многочисленные разборки, грабежи и вымогательства, в которых замешаны криминальные бароны и их банды, а также коррупционные политики — от всего этого страдают жители Гарлема. Люк должен сделать выбор — стоит ли продолжать скрываться, ведь у Люка есть свои скелеты в шкафу или же вмешаться и помочь...



Качество: WEBRip
Формат: AVI
Видео: 720x400 (1.80:1), 23.976 fps, XviD build 50 ~1327 kbps avg, 0.19 bit/pixel
Аудио: MP3, 48 kHz, 2 ch, 192 kbps
Субтитры: нет
General
Complete name : F:\Marvels.Luke.Cage.S02.LostFilm\Marvels.Luke.Cage.S02E01.rus.LostFilm.TV.avi
Format : AVI
Format/Info : Audio Video Interleave
File size : 615 MiB
Duration : 56 min 20 s
Overall bit rate mode : Variable
Overall bit rate : 1 525 kb/s
Writing application : Nandub v1.0rc2
Writing library : Nandub build 1853/release

Video
ID : 0
Format : MPEG-4 Visual
Format profile : Advanced Simple@L5
Format settings, BVOP : No
Format settings, QPel : No
Format settings, GMC : No warppoints
Format settings, Matrix : Default (MPEG)
Codec ID : XVID
Codec ID/Hint : XviD
Duration : 56 min 20 s
Bit rate : 1 264 kb/s
Width : 720 pixels
Height : 400 pixels
Display aspect ratio : 16:9
Frame rate : 23.976 (24000/1001) FPS
Original frame rate : 23.976 (23976/1000) FPS
Color space : YUV
Chroma subsampling : 4:2:0
Bit depth : 8 bits
Scan type : Progressive
Compression mode : Lossy
Bits/(Pixel*Frame) : 0.183
Stream size : 509 MiB (83%)
Writing library : XviD 1.2.1 (UTC 2008-12-04)

Audio
ID : 1
Format : MPEG Audio
Format version : Version 1
Format profile : Layer 3
Format settings : Joint stereo / MS Stereo
Mode : Joint stereo
Mode extension : MS Stereo
Codec ID : 55
Codec ID/Hint : MP3
Duration : 56 min 20 s
Bit rate mode : Variable
Bit rate : 192 kb/s
Channel(s) : 2 channels
Sampling rate : 48.0 kHz
Compression mode : Lossy
Stream size : 77.4 MiB (13%)
Alignment : Aligned on interleaves
Writing library : LAME3.97b
Encoding settings : -m j -V 4 -q 3 -lowpass 18.6 --abr 192
Внимание! Раздача ведётся путём добавления новых серий; при каждом добавлении создаётся новый торрент. Чтобы начать докачку новой серии, пользователям необходимо сделать следующее:
(1) остановить скачивание,
(2) удалить старый торрент у себя из клиента (старые серии удалять не надо),
(3) скачать новый торрент и запустить его у себя в клиенте вместо старого, при этом указать клиенту путь в старую папку куда и должно происходить скачивание новых серий.
Ваш клиент при этом должен произвести хеширование (проверку) старой папки (если не производит сам - помогите ему сделать это), и будет докачивать только те серии которых у вас ещё нет. Старые серии при этом не удаляются, а продолжают раздаваться!
Eсли вы уже удалили старые серии, то предотвратить повторную закачку старых серий можно, отжав галочку в соответствующих местах при запуске нового торрента. По возможности, желательно не удалять старые серии как можно дольше чтобы релизёр не столько продолжал раздавать старые серии, а смог сконцентрироваться на новых.



Скачать Люк.Кейдж.Luke.Cage.(сезон.02.серии.01-03.из.13).(Энди.Годдард.Марк.Йобст.Кларк.Джонсон).[2018.фантастика.боевик.триллер.драма.WEBRip].[MVO].(LostFilm).torrent без регистрации
Золото ЗОЛОТАЯ РАЗДАЧА! СКАЧАННОЕ НЕ ЗАСЧИТЫВАЕТСЯ! Золото
Дата: Зарегистрирован   [ Тип: внутренний ] Как тут cкачать?
MAGNET ссылка
MAGNET ссылка


Скачать .torrent

19 KB

Статус: проверено DHT
Скачан: торрент - 44 раз, раздача полностью - 2 раз
Размер: 1,82 GB
Оценка:  - (Голосов: 0)
Поблагодарили: 0
Поделиться ссылкой на эту раздачу с друзьями:
В контактеFacebookОдноклассникиTwitterLivejournalМой МирLiveinternet
 

 
Показать сообщения:    


Вы не можете начинать темы
Вы не можете отвечать на сообщения
Вы не можете редактировать свои сообщения
Вы не можете удалять свои сообщения
Вы не можете голосовать в опросах
Вы не можете прикреплять файлы к сообщениям
Вы можете скачивать файлы