Loading...
Error

Скачать Излом времени / A Wrinkle in Time (Ава ДюВерней) [2018, Фантастика, фэнтези, приключения, семейный, BDRip][1080p] [DUB iTunes] [R.G. GoldenShara] торрент без регистрации

Статистика раздачи
Размер:  4,32 GB   |    Скачан:  131 раз
Сидов:  5  [  0 KB/s  ]  
 
 
 
Автор Сообщение

Magnetto83

[] 


Излом времени / A Wrinkle in Time


Год выпуска: 2018
Выпущено: США | Walt Disney Pictures
Жанр: Фантастика, фэнтези, приключения, семейный
Продолжительность: 01:49:37
Перевод: Профессиональный (полное дублирование) | iTunes |
Субтитры: Русские (Полные), английские (Full + SDH)
Навигация по главам: Сохранены оригинальные главы как на Blu-ray

Слоган: «Be a warrior»

Режиссер: Ава ДюВерней

В ролях: Сторм Рейд, Опра Уинфри, Риз Уизерспун, Минди Кейлинг, Леви Миллер, Дерик Маккейб, Крис Пайн, Гугу Мбата-Роу, Зак Галифианакис, Майкл Пенья, Андре Холлэнд, Роуэн Бланчард, Беллами Янг, Дэвид Ойелоуо, Конрад Робертс, Ивет Кейсон, Уилл МакКормак, Дэниэл МакФерсон, Тэрин Лук, Тим Кенг, Лайрик Уилсон

Описание: Юная Мэг вместе с младшим братом и школьным приятелем решает отправиться на поиски своего отца, учёного-физика, пропавшего в ходе научного эксперимента. Найти его предстоит не в привычном мире, а в таинственных изломах времени и пространства, где понятие реальности относительно и ничему нельзя верить! Выбраться из фантастических миров и победить тьму, которая распространяется по вселенной, можно, только изучив себя и приняв свои недостатки.



Возраст: 6+ (Зрителям, достигшим 6 лет)

Рейтинг MPAA: PG (Рекомендуется присутствие родителей)

Качество: BDRip 1080p
Формат: MKV
Видео кодек: H.264
Аудио кодек: AC3
Видео: 1920x804 (2.40:1), 5254 Кбит/с, 23.976 fps
Аудио: Русский Dolby Digital 5.1 (384 Кбит/с)


x264 [info]: frame I:1244 Avg QP:14.83 size:180897
x264 [info]: frame P:37613 Avg QP:17.53 size: 52660
x264 [info]: frame B:118844 Avg QP:19.95 size: 17776
x264 [info]: consecutive B-frames: 2.6% 3.9% 15.7% 16.7% 18.6% 38.7% 2.6% 0.4% 0.7%
x264 [total]: encoded 157701 frames, 0.80 fps, 5252.20 kb/s



General
Complete name : J:\Кино HD\Мои Рипы 1080p\Кино Хиты 2018 1080р\Излом времени 2018 Dub Rus iTunes BDRip 1080p.mkv
Format : Matroska
Format version : Version 2
File size : 4.32 GiB
Duration : 1h 49mn
Overall bit rate : 5 628 Kbps
Movie name : Излом времени 2018 Dub Rus iTunes BDRip 1080p By R.G. GoldenShara
Encoded date : UTC 2018-06-13 08:27:23
Writing application : mkvmerge v5.2.0 ('I can't explain') built on Dec 18 2011 18:12:03
Writing library : libebml v1.2.3 + libmatroska v1.3.0
Attachements : Cover

Video
ID : 1
Format : AVC
Format/Info : Advanced Video Codec
Format profile : High@L4.1
Format settings, CABAC : Yes
Format settings, ReFrames : 5 frames
Codec ID : V_MPEG4/ISO/AVC
Duration : 1h 49mn
Bit rate : 5 254 Kbps
Width : 1 920 pixels
Height : 804 pixels
Display aspect ratio : 2.40:1
Frame rate mode : Constant
Frame rate : 23.976 fps
Color space : YUV
Chroma subsampling : 4:2:0
Bit depth : 8 bits
Scan type : Progressive
Bits/(Pixel*Frame) : 0.142
Stream size : 3.94 GiB (91%)
Title : Излом времени 2018 BDRip 1080p By Magnetto 83
Writing library : x264 core 146 r2538 121396c
Encoding settings : cabac=1 / ref=5 / deblock=1:-3:-3 / analyse=0x3:0x113 / me=umh / subme=11 / psy=1 / psy_rd=1.00:0.00 / mixed_ref=1 / me_range=32 / chroma_me=1 / trellis=2 / 8x8dct=1 / cqm=0 / deadzone=21,11 / fast_pskip=0 / chroma_qp_offset=-2 / threads=3 / lookahead_threads=1 / sliced_threads=0 / nr=0 / decimate=1 / interlaced=0 / bluray_compat=0 / constrained_intra=0 / bframes=8 / b_pyramid=2 / b_adapt=2 / b_bias=0 / direct=3 / weightb=1 / open_gop=0 / weightp=2 / keyint=250 / keyint_min=23 / scenecut=40 / intra_refresh=0 / rc=2pass / mbtree=0 / bitrate=5254 / ratetol=1.0 / qcomp=0.60 / qpmin=0 / qpmax=69 / qpstep=4 / cplxblur=20.0 / qblur=0.5 / ip_ratio=1.40 / pb_ratio=1.30 / aq=2:1.00
Language : English
Default : Yes
Forced : No

Audio
ID : 2
Format : AC-3
Format/Info : Audio Coding 3
Mode extension : CM (complete main)
Format settings, Endianness : Big
Codec ID : A_AC3
Duration : 1h 49mn
Bit rate mode : Constant
Bit rate : 384 Kbps
Channel(s) : 6 channels
Channel positions : Front: L C R, Side: L R, LFE
Sampling rate : 48.0 KHz
Compression mode : Lossy
Stream size : 302 MiB (7%)
Title : DD 5.1 @ 384 Kbps - Dub | iTunes |
Language : Russian
Default : Yes
Forced : No

Text #1
ID : 3
Format : UTF-8
Codec ID : S_TEXT/UTF8
Codec ID/Info : UTF-8 Plain Text
Title : Полные
Language : Russian
Default : No
Forced : No

Text #2
ID : 4
Format : UTF-8
Codec ID : S_TEXT/UTF8
Codec ID/Info : UTF-8 Plain Text
Title : Full
Language : English
Default : No
Forced : No

Text #3
ID : 5
Format : UTF-8
Codec ID : S_TEXT/UTF8
Codec ID/Info : UTF-8 Plain Text
Title : SDH
Language : English
Default : No
Forced : No

Menu
00:00:00.000 : en:00:00:00.000
00:09:39.871 : en:00:09:39.871
00:13:46.868 : en:00:13:46.868
00:18:04.083 : en:00:18:04.083
00:21:28.287 : en:00:21:28.287
00:28:32.502 : en:00:28:32.502
00:39:14.811 : en:00:39:14.811
00:48:41.252 : en:00:48:41.252
00:54:03.198 : en:00:54:03.198
01:03:04.531 : en:01:03:04.531
01:09:48.267 : en:01:09:48.267
01:19:03.197 : en:01:19:03.197
01:29:05.549 : en:01:29:05.549
01:40:03.497 : en:01:40:03.497







Скачать Излом.времени.A.Wrinkle.in.Time.(Ава.ДюВерней).[2018.Фантастика.фэнтези.приключения.семейный.BDRip][1080p].[DUB.iTunes].[R.G.GoldenShara].torrent без регистрации
Золото ЗОЛОТАЯ РАЗДАЧА! СКАЧАННОЕ НЕ ЗАСЧИТЫВАЕТСЯ! Золото
Дата: Зарегистрирован   [ Тип: внутренний ] Как тут cкачать?
MAGNET ссылка
MAGNET ссылка


Скачать .torrent

11 KB

Статус: Τ временная раздача
Скачан: торрент - 131 раз, раздача полностью - 90 раз
Размер: 4,32 GB
Оценка:  4,8 (Голосов: 6)
Поблагодарили: 14
Поделиться ссылкой на эту раздачу с друзьями:
В контактеFacebookОдноклассникиTwitterLivejournalМой МирLiveinternet
 

 
Показать сообщения:    


Вы не можете начинать темы
Вы не можете отвечать на сообщения
Вы не можете редактировать свои сообщения
Вы не можете удалять свои сообщения
Вы не можете голосовать в опросах
Вы не можете прикреплять файлы к сообщениям
Вы можете скачивать файлы