Loading...
Error

Скачать Тихое место / A Quiet Place (Джон Красински) [2018, ужасы, фантастика, триллер, драма, BDRip] [1080p] [Dub] [Лицензия] [iTunes] [R.G. Goldenshara] торрент без регистрации

Статистика раздачи
Размер:  4,33 GB   |    Скачан:  183 раза
Сидов:  6  [  0 KB/s  ]   Личеров:  2  [  0 KB/s  ]  
 
 
 
Автор Сообщение

sobmaster

[] 



Тихое место
A Quiet Place




Год выпуска: 2018
Страна: США
Выпущено: Platinum Dunes
Слоган: «Тсссс! Если хочешь выжить - не издавай ни звука»
Жанр: ужасы, фантастика, триллер, драма

Продолжительность: 01:30:14
Перевод: Профессиональный (полное дублирование) (iTunes)
Режиссер: Джон Красински
Сценарий: Брайан Вудс, Скотт Бек, Джон Красински
Продюсер: Майкл Бэй, Скотт Бек, Джеффри Бикрофт
Оператор: Шарлотта Брюус Кристенсен
Композитор: Марко Белтрами
Художник: Джеффри Бикрофт, Себастьян Шродер, Кася Валицка-Мэймон
Монтаж: Кристофер Теллефсен
В ролях:


Эмили Блант (Evelyn Abbott), Джон Красински (Lee Abbott), Милли Симмондс (Regan Abbott), Ноа Джуп (Marcus Abbott), Кейд Вудворд (Beau Abbott), Леон Рассом (Man in the Woods), Дорис МакКарти (Woman in the Woods), Рода Пелл (Old Man's Dead Wife)
Роли дублировали: Ирина Киреева (Evelyn Abbott), Дмитрий Поляновский (Lee Abbott), Фёдор Подчезерцев (Marcus Abbott)
Бюджет: $17 000 000
Сборы в США: $187 449 628
Сборы в мире: $331 349 628
Сборы в России: $5 448 960
Зрители: Россия 1.32 млн
Мировая премьера: 9 марта 2018
Премьера (РФ): 12 апреля 2018, «Централ Партнершип»
Цифровой релиз: 5 июля 2018, «Paramount»
Релиз на DVD: 23 июля 2018, «НД Плэй»
Релиз на Blu-ray: 23 июля 2018, «НД Плэй»
MPAA: - Детям до 13 лет просмотр не желателен

Описание: Семья с двумя детьми живёт на отдалённой ферме. Казалось бы, жизнь этих людей совершенно не отличается от жизни других таких семей, но они живут в месте, которое наполнено ужасными монстрами, реагирующими на любой звук. Семейство разучило целый комплекс специальных жестов, которые помогают им общаться друг с другом, не издавая ни единого звука. Кроме того, каждый из членов семьи должен очень тихо передвигаться, чтобы опасные существа их не услышали. Однако дом, где живут дети, не может быть самым тихим местом на земле.


Качество: BDRip 1080p
Контейнер: MKV
Видео: AVC, 1920x800 (2.40:1), 6487 kbps, 23.976 fps, 0.176 bpp
Аудио: русский /; AC3 /; 5.1 /; 48 kHz /; 384 kbps /; 16 bit; ||
Субтитры #1: русские (Forced)
Субтитры #2: русские (Full)
Субтитры #3: английские (Full)
Субтитры #4: английские (SDH)
Субтитры #5: английские (SDH-Colored)
Навигация по главам: есть

АНОНСЫ ПОПУЛЯРНЫХ РАЗДАЧ

  • Съёмки проходили в основном на Уэст-Дувр Роуд в городе Паулинг в штате Нью-Йорк, а иногда — в городе Литтл Фолз, тоже штат Нью-Йорк.
  • Эмили Блант и Джон Красински, исполнившие роли супругов на экране, и в реальной жизни являются семейной парой.
  • Существо, обладающее таким острым слухом, что оно из леса за несколько километров способно услышать звук разбившегося стекла в подвале дома, в небольшом замкнутом помещении должно слышать не только дыхание человека, но и стук его сердца и кровь, бегущую по венам. Но вместо этого существо, и то не сразу, слышит звук тикающего таймера, который способен услышать обычный человек.
  • Существа слепые, но при этом они на большой скорости бегают по лесу, не врезаясь в деревья, и прекрасно ориентируются в доме — ходят по лестницам и открывают двери. Но определить местоположение человека, пока тот не издаст звук, не могут.

Код:

General
Unique ID                   : 246893614469175361474389181439266568208 (0xB9BDFB03414B883D9DD00C3D7670B810)
Complete name               : E:\Мои рипы\Тихое место.2018.BDRip.1080p.DUB.mkv
Format                      : Matroska
Format version              : Version 4 / Version 2
File size                   : 4.33 GiB
Duration                    : 1 h 30 min
Overall bit rate            : 6 872 kb/s
Movie name                  : Incident in a Ghost Land (2018)
Encoded date                : UTC 2018-07-13 15:58:49
Writing application         : mkvmerge v6.8.0 ('Theme for Great Cities') 32bit built on Mar  2 2014 21:27:07
Writing library             : libebml v1.3.0 + libmatroska v1.4.1

Video
ID                          : 1
Format                      : AVC
Format/Info                 : Advanced Video Codec
Format profile              : High@L4.1
Format settings             : CABAC / 5 Ref Frames
Format settings, CABAC      : Yes
Format settings, ReFrames   : 5 frames
Codec ID                    : V_MPEG4/ISO/AVC
Duration                    : 1 h 30 min
Bit rate                    : 6 487 kb/s
Width                       : 1 920 pixels
Height                      : 800 pixels
Display aspect ratio        : 2.40:1
Frame rate mode             : Constant
Frame rate                  : 23.976 (23976/1000) FPS
Color space                 : YUV
Chroma subsampling          : 4:2:0
Bit depth                   : 8 bits
Scan type                   : Progressive
Bits/(Pixel*Frame)          : 0.176
Stream size                 : 4.00 GiB (92%)
Writing library             : x264 core 130 r2273 b3065e6
Encoding settings           : cabac=1 / ref=5 / deblock=1:-3:-3 / analyse=0x3:0x113 / me=umh / subme=11 / psy=1 / psy_rd=1.00:0.15 / mixed_ref=1 / me_range=48 / chroma_me=1 / trellis=2 / 8x8dct=1 / cqm=0 / deadzone=21,11 / fast_pskip=0 / chroma_qp_offset=-4 / threads=6 / lookahead_threads=1 / sliced_threads=0 / nr=0 / decimate=0 / interlaced=0 / bluray_compat=0 / constrained_intra=0 / bframes=8 / b_pyramid=2 / b_adapt=2 / b_bias=0 / direct=2 / weightb=1 / open_gop=0 / weightp=2 / keyint=250 / keyint_min=23 / scenecut=40 / intra_refresh=0 / rc=2pass / mbtree=0 / bitrate=6487 / ratetol=1.0 / qcomp=0.60 / qpmin=0 / qpmax=69 / qpstep=4 / cplxblur=20.0 / qblur=0.5 / ip_ratio=1.40 / pb_ratio=1.30 / aq=2:1.00
Language                    : English
Default                     : Yes
Forced                      : No
Color range                 : Limited
Color primaries             : Generic film
Matrix coefficients         : YCgCo

Audio
ID                          : 2
Format                      : AC-3
Format/Info                 : Audio Coding 3
Codec ID                    : A_AC3
Duration                    : 1 h 30 min
Bit rate mode               : Constant
Bit rate                    : 384 kb/s
Channel(s)                  : 6 channels
Channel positions           : Front: L C R, Side: L R, LFE
Sampling rate               : 48.0 kHz
Frame rate                  : 31.250 FPS (1536 SPF)
Bit depth                   : 16 bits
Compression mode            : Lossy
Stream size                 : 248 MiB (6%)
Title                       : Dub | DD 5.1 @ 384 kbps - iTunes
Language                    : Russian
Service kind                : Complete Main
Default                     : Yes
Forced                      : No

Text #1
ID                          : 3
Format                      : UTF-8
Codec ID                    : S_TEXT/UTF8
Codec ID/Info               : UTF-8 Plain Text
Title                       : Forced
Language                    : Russian
Default                     : Yes
Forced                      : No

Text #2
ID                          : 4
Format                      : UTF-8
Codec ID                    : S_TEXT/UTF8
Codec ID/Info               : UTF-8 Plain Text
Title                       : Full
Language                    : Russian
Default                     : No
Forced                      : No

Text #3
ID                          : 5
Format                      : UTF-8
Codec ID                    : S_TEXT/UTF8
Codec ID/Info               : UTF-8 Plain Text
Title                       : Full
Language                    : English
Default                     : No
Forced                      : No

Text #4
ID                          : 6
Format                      : UTF-8
Codec ID                    : S_TEXT/UTF8
Codec ID/Info               : UTF-8 Plain Text
Title                       : SDH
Language                    : English
Default                     : No
Forced                      : No

Text #5
ID                          : 7
Format                      : UTF-8
Codec ID                    : S_TEXT/UTF8
Codec ID/Info               : UTF-8 Plain Text
Title                       : SDH-Colored
Language                    : English
Default                     : No
Forced                      : No

Menu
00:00:00.000                : en:00:00:00.000
00:10:19.160                : en:00:10:19.160
00:14:38.044                : en:00:14:38.044
00:21:52.937                : en:00:21:52.937
00:25:09.717                : en:00:25:09.717
00:31:05.197                : en:00:31:05.197
00:36:23.431                : en:00:36:23.431
00:43:47.333                : en:00:43:47.333
00:47:42.735                : en:00:47:42.735
00:53:48.225                : en:00:53:48.225
01:00:31.461                : en:01:00:31.461
01:05:55.410                : en:01:05:55.410
01:10:57.879                : en:01:10:57.879
01:15:29.150                : en:01:15:29.150
01:23:47.314                : en:01:23:47.314






Скачать Тихое.место.A.Quiet.Place.(Джон.Красински).[2018.ужасы.фантастика.триллер.драма.BDRip].[1080p].[Dub].[Лицензия].[iTunes].[R.G.Goldenshara].torrent без регистрации
Золото ЗОЛОТАЯ РАЗДАЧА! СКАЧАННОЕ НЕ ЗАСЧИТЫВАЕТСЯ! Золото
Дата: Зарегистрирован   [ Тип: внутренний ] Как тут cкачать?
MAGNET ссылка
MAGNET ссылка


Скачать .torrent

11 KB

Статус: Τ временная раздача
Скачан: торрент - 183 раз, раздача полностью - 39 раз
Размер: 4,33 GB
Оценка:  5 (Голосов: 5)
Поблагодарили: 10
Поделиться ссылкой на эту раздачу с друзьями:
В контактеFacebookОдноклассникиTwitterLivejournalМой МирLiveinternet
 

 

копылов геннадий николаев

[] 

Спасибо! Классный фильм! az
 

sobmaster

[] 

Замена звука на Dub (iTunes)
 
Показать сообщения:    


Вы не можете начинать темы
Вы не можете отвечать на сообщения
Вы не можете редактировать свои сообщения
Вы не можете удалять свои сообщения
Вы не можете голосовать в опросах
Вы не можете прикреплять файлы к сообщениям
Вы можете скачивать файлы