Loading...
Error

Скачать Нарко / Барыги / Narcos (Сезоны 01-03) (Андрес Байс, Джозеф Владыка, Фернандо Коимбра) [2015-2017, Драма, криминал, WEBRip] [MVO] (LostFilm) + [Original] торрент без регистрации

Статистика раздачи
Размер:  19,24 GB   |    Скачан:  45 раз
Сидов:  1  [  0 KB/s  ]  
 
 
 
Автор Сообщение

leon030982

[] 

Нарко / Барыги / Narcos
Год выпуска: 2015-2017
Страна: Колумбия, США
Жанр: Драма, криминал
Продолжительность: ~00:55:00
Перевод: Профессиональный (многоголосый закадровый) | LostFilm

Режиссёр: Андрес Байс, Джозеф Владыка, Фернандо Коимбра

В ролях: Вагнер Моура, Бойд Холбрук, Педро Паскаль, Джоанна Кристи, Морис Комт, Альберто Амман, Паулина Гайтан, Хуан Мурсия, Хорхе Монтерроса, Дамиан Алькасар

Описание: Преступную деятельность будущий влиятельнейший наркобарон Колумбии Пабло Эскобар начал ещё в детстве с воровства и мошенничества, после он перешёл на рэкет, вооружённые налёты и похищение людей. Когда вокруг Пабло сформировалась мощная группировка он решил расширяться в сторону самого перспективного и бездонного рынка - поставки колумбийского кокаина в Соединённые Штаты, где основной проблемой Управления по борьбе с наркотиками до этого момента были лишь добродушные хиппи с их марихуаной. Американские нарки в кратчайшие сроки озолотили юного Пабло и дали ему неограниченную власть на родине, где наркобарон, благодаря своим вложениям в местную экономику, стал настоящим героем. Вместе с несколькими влиятельными коллегами Эскобар создаёт Медельинский кокаиновый картель, закупает всевозможную технику для контрабанды своей продукции на север и открывает множество лабораторий по производству белого порошка в безлюдных джунглях. Держа в страхе политиков Колумбии Пабло всегда добивался желаемого любой ценой, предоставляя потенциальным жертвам выбор между получением взятки и пулей в голову.



Качество: WEBRip
Формат: AVI
Видео: XviD, 720x400, 23.976 fps, ~1500 kbps
Аудио #1: 48 kHz, MPEG Layer 3, 2 ch, ~128.00 kbps | Rus
Аудио #2: 48 kHz, MPEG Layer 3, 2 ch, ~128.00 kbps | Eng
Субтитры: нет
Реклама: Отсутствует

Format : AVI
Format/Info : Audio Video Interleave
File size : 722 MiB
Duration : 56 min 56 s
Overall bit rate : 1 773 kb/s
Writing application : VirtualDubMod 1.5.10.2 (build 2540/release)
Writing library : VirtualDubMod build 2540/release

Video
ID : 0
Format : MPEG-4 Visual
Format profile : Advanced Simple@L5
Format settings : BVOP1 / Custom Matrix
Format settings, BVOP : 1
Format settings, QPel : No
Format settings, GMC : No warppoints
Format settings, Matrix : Custom
Codec ID : XVID
Codec ID/Hint : XviD
Duration : 56 min 56 s
Bit rate : 1 503 kb/s
Width : 720 pixels
Height : 400 pixels
Display aspect ratio : 16:9
Frame rate : 23.976 (24000/1001) FPS
Color space : YUV
Chroma subsampling : 4:2:0
Bit depth : 8 bits
Scan type : Progressive
Compression mode : Lossy
Bits/(Pixel*Frame) : 0.218
Stream size : 612 MiB (85%)
Writing library : XviD 73

Audio #1
ID : 1
Format : MPEG Audio
Format version : Version 1
Format profile : Layer 3
Format settings : Joint stereo / MS Stereo
Codec ID : 55
Codec ID/Hint : MP3
Duration : 56 min 56 s
Bit rate mode : Constant
Bit rate : 128 kb/s
Channel(s) : 2 channels
Sampling rate : 48.0 kHz
Compression mode : Lossy
Stream size : 52.1 MiB (7%)
Alignment : Split accross interleaves
Interleave, duration : 42 ms (1.00 video frame)
Interleave, preload duratio : 500 ms

Audio #2
ID : 2
Format : MPEG Audio
Format version : Version 1
Format profile : Layer 3
Format settings : Joint stereo / MS Stereo
Codec ID : 55
Codec ID/Hint : MP3
Duration : 56 min 56 s
Bit rate mode : Constant
Bit rate : 128 kb/s
Channel(s) : 2 channels
Sampling rate : 48.0 kHz
Compression mode : Lossy
Stream size : 52.1 MiB (7%)
Alignment : Split accross interleaves
Interleave, duration : 42 ms (1.00 video frame)
Interleave, preload duratio : 500 ms



Скачать Нарко.Барыги.Narcos.(Сезоны.01-03).(Андрес.Байс.Джозеф.Владыка.Фернандо.Коимбра).[2015-2017.Драма.криминал.WEBRip].[MVO].(LostFilm).+.[Original].torrent без регистрации
Золото ЗОЛОТАЯ РАЗДАЧА! СКАЧАННОЕ НЕ ЗАСЧИТЫВАЕТСЯ! Золото
Дата: Зарегистрирован   [ Тип: внутренний ] Как тут cкачать?
MAGNET ссылка
MAGNET ссылка


Скачать .torrent

98 KB

Статус: проверено DHT
Скачан: торрент - 45 раз, раздача полностью - 3 раз
Размер: 19,24 GB
Оценка:  - (Голосов: 0)
Поблагодарили: 0
Поделиться ссылкой на эту раздачу с друзьями:
В контактеFacebookОдноклассникиTwitterLivejournalМой МирLiveinternet
 

 
Показать сообщения:    


Вы не можете начинать темы
Вы не можете отвечать на сообщения
Вы не можете редактировать свои сообщения
Вы не можете удалять свои сообщения
Вы не можете голосовать в опросах
Вы не можете прикреплять файлы к сообщениям
Вы можете скачивать файлы