Loading...
Error

Скачать Первому игроку приготовиться / Ready Player One (Стивен Спилберг) [2018, фантастика, боевик, приключения, BDRip] [1080p] [Dub] [Лицензия (Blu-ray CEE)] [R.G. Goldenshara] торрент без регистрации

Статистика раздачи
Размер:  4,37 GB   |    Скачан:  191 раз
Сидов:  15  [  3 MB/s  ]   Личеров:  3  [  199 KB/s  ]  
 
 
 
Автор Сообщение

sobmaster

[] 



Первому игроку приготовиться
Ready Player One




Год выпуска: 2018
Страна: США
Выпущено: Warner Bros. Pictures
Слоган: «Загрузи новую реальность»
Жанр: фантастика, боевик, приключения

Продолжительность: 02:19:56
Перевод: Профессиональный (полное дублирование) (Blu-ray CEE)
Режиссер: Стивен Спилберг
Сценарий: Эрнест Клайн, Зак Пенн
Продюсер: Дональд Де Лайн, Дэн Фара, Кристи Макоско Кригер
Оператор: Януш Камински
Композитор: Алан Сильвестри
Художник: Адам Штокхаузен, Гай Брэдли, Гэвин Фитч
Монтаж: Сара Брошар, Майкл Кан
В ролях:


Тай Шеридан (Parzival / Wade), Оливия Кук (Art3mis / Samantha), Бен Мендельсон (Sorrento), Лина Уэйте (Aech / Helen), ТиДжей Миллер (I-R0k), Саймон Пегг (Ogden Morrow), Марк Райлэнс (Anorak / Halliday), Филип Чжао (Sho), Уин Морисаки (Daito), Ханна Джон-Кэймен (F'Nale Zandor), Ралф Айнесон (Rick), Сьюзэн Линч (Alice), Клэр Хиггинс (Mrs. Gilmore), Лоуренс Спэллман (Lame Tattoo Guy (Reb)), Пердита Викс (Kira)
Роли дублировали: Прохор Чеховской (Parzival / Wade), Мария Иващенко (Art3mis / Samantha), Александр Носков (Sorrento), Варвара Чабан (Aech / Helen), Иван Калинин (I-R0k), Никита Прозоровский (Anorak / Halliday), Андрей Янайт (Sho), Александр Скиданов (Daito), Полина Кузьминская (F'Nale Zandor), Артем Маликов (Chubby Guy)
Сборы в США: $137 018 455
Сборы в мире: $582 018 455
Сборы в России: $11 837 806
Зрители: Россия 2.69 млн
Мировая премьера: 11 марта 2018
Премьера (РФ): 29 марта 2018, «Каро-Премьер»
Цифровой релиз: 4 июля 2018, «Warner Bros.»
MPAA: - Детям до 13 лет просмотр не желателен

Описание: Действие фильма происходит в 2045 году, мир погружается в хаос и находится на грани коллапса. Люди ищут спасения в игре OASIS — огромной вселенной виртуальной реальности. Ее создатель, гениальный и эксцентричный Джеймс Холлидэй, оставляет уникальное завещание. Все его колоссальное состояние получит игрок, первым обнаруживший цифровое «пасхальное яйцо», которое миллиардер спрятал где-то на просторах OASISа. Запущенный им квест охватывает весь мир. Совершенно негероический парень по имени Уэйд Уоттс решает принять участие в состязании, с головой бросаясь в головокружительную, искажающую реальность погоню за сокровищами по фантастической вселенной, полной загадок, открытий и опасностей.


Качество: BDRip 1080p
Контейнер: MKV
Видео: AVC, 1920x804 (2.40:1), 4088 kbps, 23.976 fps, 0.110 bpp
Аудио: русский /; AC3 /; 5.1 /; 48 kHz /; 384 kbps /; 16 bit; ||
Субтитры #1: русские (Forced)
Субтитры #2: русские (Full)
Субтитры #3: русские (Full v.2)
Субтитры #4: английские (Full)
Навигация по главам: есть

АНОНСЫ ПОПУЛЯРНЫХ РАЗДАЧ

  • Фильм снят по мотивам одноимённого научно-фантастического романа (2011) Эрнеста Клайна.
  • Премьеру фильма передвинули на 2018 год, чтобы избежать соперничества в прокате с фильмом «Звёздные Войны: Последние джедаи» (Райан Джонсон, 2017).
  • В фильме встречаются отсылки к следующим играм: Pac-Man, Q*bert, Adventure, Asteroids, Defenders, Swordquest, Joust, Space Invaders, Centipede, Street Fighter, Danganronpa, Battletoads, Duke Nukem, Tomb Raider, Battleborn, Mass Effect, Overwatch, Mortal Kombat, Halo, Mario Kart, Minecraft, Sonic the Hedgehog, Pitfall, Pole Position, Quake, Starcraft2.

Код:

General
Unique ID                   : 218086773901940393478023022114426971252 (0xA411FC1E0840B4438F1AEEE9FCBDE474)
Complete name               : E:\Мои рипы\Первому игроку приготовиться.2018.BDRip.1080p.DUB.mkv
Format                      : Matroska
Format version              : Version 4 / Version 2
File size                   : 4.37 GiB
Duration                    : 2 h 19 min
Overall bit rate            : 4 473 kb/s
Movie name                  : Ready Player One 2018 from ExKinoRay
Encoded date                : UTC 2018-07-10 15:10:32
Writing application         : mkvmerge v6.8.0 ('Theme for Great Cities') 32bit built on Mar  2 2014 21:27:07
Writing library             : libebml v1.3.0 + libmatroska v1.4.1

Video
ID                          : 1
Format                      : AVC
Format/Info                 : Advanced Video Codec
Format profile              : High@L4.1
Format settings             : CABAC / 5 Ref Frames
Format settings, CABAC      : Yes
Format settings, ReFrames   : 5 frames
Codec ID                    : V_MPEG4/ISO/AVC
Duration                    : 2 h 19 min
Bit rate                    : 4 088 kb/s
Width                       : 1 920 pixels
Height                      : 804 pixels
Display aspect ratio        : 2.40:1
Frame rate mode             : Constant
Frame rate                  : 23.976 (23976/1000) FPS
Color space                 : YUV
Chroma subsampling          : 4:2:0
Bit depth                   : 8 bits
Scan type                   : Progressive
Bits/(Pixel*Frame)          : 0.110
Stream size                 : 3.91 GiB (89%)
Writing library             : x264 core 130 r2273 b3065e6
Encoding settings           : cabac=1 / ref=5 / deblock=1:-3:-3 / analyse=0x3:0x113 / me=umh / subme=11 / psy=1 / psy_rd=1.00:0.15 / mixed_ref=1 / me_range=48 / chroma_me=1 / trellis=2 / 8x8dct=1 / cqm=0 / deadzone=21,11 / fast_pskip=0 / chroma_qp_offset=-4 / threads=6 / lookahead_threads=1 / sliced_threads=0 / nr=0 / decimate=0 / interlaced=0 / bluray_compat=0 / constrained_intra=0 / bframes=8 / b_pyramid=2 / b_adapt=2 / b_bias=0 / direct=2 / weightb=1 / open_gop=0 / weightp=2 / keyint=250 / keyint_min=23 / scenecut=40 / intra_refresh=0 / rc=2pass / mbtree=0 / bitrate=4088 / ratetol=1.0 / qcomp=0.60 / qpmin=0 / qpmax=69 / qpstep=4 / cplxblur=20.0 / qblur=0.5 / ip_ratio=1.40 / pb_ratio=1.30 / aq=2:1.00
Language                    : English
Default                     : Yes
Forced                      : No
Color range                 : Limited
Color primaries             : Generic film
Matrix coefficients         : YCgCo

Audio
ID                          : 2
Format                      : AC-3
Format/Info                 : Audio Coding 3
Codec ID                    : A_AC3
Duration                    : 2 h 19 min
Bit rate mode               : Constant
Bit rate                    : 384 kb/s
Channel(s)                  : 6 channels
Channel positions           : Front: L C R, Side: L R, LFE
Sampling rate               : 48.0 kHz
Frame rate                  : 31.250 FPS (1536 SPF)
Bit depth                   : 16 bits
Compression mode            : Lossy
Stream size                 : 384 MiB (9%)
Title                       : Дубляж
Language                    : Russian
Service kind                : Complete Main
Default                     : Yes
Forced                      : No

Text #1
ID                          : 3
Format                      : UTF-8
Codec ID                    : S_TEXT/UTF8
Codec ID/Info               : UTF-8 Plain Text
Title                       : Forced
Language                    : Russian
Default                     : Yes
Forced                      : No

Text #2
ID                          : 4
Format                      : UTF-8
Codec ID                    : S_TEXT/UTF8
Codec ID/Info               : UTF-8 Plain Text
Title                       : Full
Language                    : Russian
Default                     : No
Forced                      : No

Text #3
ID                          : 5
Format                      : UTF-8
Codec ID                    : S_TEXT/UTF8
Codec ID/Info               : UTF-8 Plain Text
Title                       : Full v.2
Language                    : Russian
Default                     : No
Forced                      : No

Text #4
ID                          : 6
Format                      : UTF-8
Codec ID                    : S_TEXT/UTF8
Codec ID/Info               : UTF-8 Plain Text
Title                       : Full
Language                    : English
Default                     : No
Forced                      : No

Menu
00:00:00.000                : en:00:00:00.000
00:10:08.233                : en:00:10:08.233
00:20:18.259                : en:00:20:18.259
00:30:37.627                : en:00:30:37.627
00:40:38.269                : en:00:40:38.269
00:50:08.964                : en:00:50:08.964
01:03:01.778                : en:01:03:01.778
01:11:55.269                : en:01:11:55.269
01:20:14.727                : en:01:20:14.727
01:30:58.328                : en:01:30:58.328
01:43:26.742                : en:01:43:26.742
01:53:02.150                : en:01:53:02.150
02:04:20.161                : en:02:04:20.161
02:09:17.249                : en:02:09:17.249






Скачать Первому.игроку.приготовиться.Ready.Player.One.(Стивен.Спилберг).[2018.фантастика.боевик.приключения.BDRip].[1080p].[Dub].[Лицензия.(Blu-ray.CEE)].[R.G.Goldenshara].torrent без регистрации
Золото ЗОЛОТАЯ РАЗДАЧА! СКАЧАННОЕ НЕ ЗАСЧИТЫВАЕТСЯ! Золото
Дата: Зарегистрирован   [ Тип: внутренний ] Как тут cкачать?
MAGNET ссылка
MAGNET ссылка


Скачать .torrent

11 KB

Статус: проверено DHT
Скачан: торрент - 191 раз, раздача полностью - 156 раз
Размер: 4,37 GB
Оценка:  5 (Голосов: 7)
Поблагодарили: 13
Поделиться ссылкой на эту раздачу с друзьями:
В контактеFacebookОдноклассникиTwitterLivejournalМой МирLiveinternet
 

 

копылов геннадий николаев

[] 

Нормальный фильм с кучей спецэффектов! az
 
Показать сообщения:    


Вы не можете начинать темы
Вы не можете отвечать на сообщения
Вы не можете редактировать свои сообщения
Вы не можете удалять свои сообщения
Вы не можете голосовать в опросах
Вы не можете прикреплять файлы к сообщениям
Вы можете скачивать файлы