Loading...
Error

Скачать Куртизанки / Harlots (Сезон 01) [2017, драма, WEB-DL 720p] [MVO] (FilmsClub) + [Orig] (Eng) торрент без регистрации

Статистика раздачи
Размер:  10,26 GB   |    Скачан:  65 раз
Сидов:  1  [  70 KB/s  ]  
 
 
 
Автор Сообщение

leon030982

[] 

Куртизанки / Harlots


Год выпуска: 2017
Жанр: Драма
Выпущено: США, Великобритания
Продолжительность: 8 x ~ 00:43:00
Перевод: Профессиональный (многоголосый, закадровый) *FilmsClub*

Режиссер: Коки Гидройч, Чина Му-Ен, Джилл Робертсон

В ролях: Саманта Мортон, Бронвин Джеймс, Алекса Дейвис, Дороти Эткинсон, Рой Бек, Джессика Браун-Финдлэй, Рори Флек-Бирн, Поппи Корби-Туч, Холли Демпси, Розалинд Элизар

О сериале: История, события которой разворачиваются в восемнадцатом столетии, повествует о Маргарет Уэллс (Саманта Мортон) — владелице борделя, отдающей все силы и заработанные средства на то, чтобы взрастить своих дочерей.



Файл

Качество: WEB-DL (720p)
Формат: MKV
Видео: MPEG-4 AVC , 1,78:1 = 16:9, 1280x720| 2997 kbps| 25,000 fps
Аудио 1: AC3 , 5.1 / 48kHz / 384kbps / 16-bit - *FilmsClub*
Аудио 2: E-AC-3 , 5.1 / 48kHz / 640kbps - Original
Субтитры: Английские
General
Unique ID : 247515414740919255463458659562608665730 (0xBA35BC220F0E491599C9BAF2C45C2482)
Complete name : F:\Harlots.S01.720p-films.club\Harlots.S01E01.720p.WEB-DL.X264-films.club.mkv
Format : Matroska
Format version : Version 4 / Version 2
File size : 1.30 GiB
Duration : 46 min 58 s
Overall bit rate : 3 968 kb/s
Encoded date : UTC 2018-06-30 23:55:44
Writing application : mkvmerge v18.0.0 ('Apricity') 64-bit
Writing library : libebml v1.3.5 + libmatroska v1.4.8

Video
ID : 1
Format : AVC
Format/Info : Advanced Video Codec
Format profile : Main@L3.1
Format settings : CABAC / 1 Ref Frames
Format settings, CABAC : Yes
Format settings, RefFrames : 1 frame
Codec ID : V_MPEG4/ISO/AVC
Duration : 46 min 58 s
Bit rate : 2 997 kb/s
Width : 1 280 pixels
Height : 720 pixels
Display aspect ratio : 16:9
Frame rate mode : Constant
Frame rate : 25.000 FPS
Color space : YUV
Chroma subsampling : 4:2:0
Bit depth : 8 bits
Scan type : Progressive
Bits/(Pixel*Frame) : 0.130
Stream size : 963 MiB (72%)
Writing library : x264 core 129
Encoding settings : cabac=1 / ref=1 / deblock=1:0:0 / analyse=0x1:0x131 / me=dia / subme=2 / psy=1 / psy_rd=1.00:0.00 / mixed_ref=0 / me_range=16 / chroma_me=1 / trellis=0 / 8x8dct=0 / cqm=0 / deadzone=21,11 / fast_pskip=1 / chroma_qp_offset=0 / threads=8 / lookahead_threads=1 / sliced_threads=0 / nr=0 / decimate=1 / interlaced=0 / bluray_compat=0 / constrained_intra=0 / bframes=0 / weightp=2 / keyint=250 / keyint_min=25 / scenecut=40 / intra_refresh=0 / rc_lookahead=40 / rc=abr / mbtree=1 / bitrate=2997 / ratetol=1.0 / qcomp=0.60 / qpmin=10 / qpmax=51 / qpstep=4 / ip_ratio=1.41 / aq=1:1.00
Default : Yes
Forced : No

Audio #1
ID : 2
Format : AC-3
Format/Info : Audio Coding 3
Format settings, Endianness : Big
Codec ID : A_AC3
Duration : 46 min 58 s
Bit rate mode : Constant
Bit rate : 384 kb/s
Channel(s) : 6 channels
Channel positions : Front: L C R, Side: L R, LFE
Sampling rate : 48.0 kHz
Frame rate : 31.250 FPS (1536 SPF)
Bit depth : 16 bits
Compression mode : Lossy
Stream size : 129 MiB (10%)
Title : films.club
Language : Russian
Service kind : Complete Main
Default : Yes
Forced : No

Audio #2
ID : 3
Format : E-AC-3
Format/Info : Enhanced Audio Coding 3
Format settings, Endianness : Big
Codec ID : A_EAC3
Duration : 46 min 58 s
Bit rate mode : Constant
Bit rate : 640 kb/s
Channel(s) : 6 channels
Channel positions : Front: L C R, Side: L R, LFE
Sampling rate : 48.0 kHz
Frame rate : 187.500 FPS (256 SPF)
Compression mode : Lossy
Stream size : 215 MiB (16%)
Title : original
Language : English
Service kind : Complete Main
Default : No
Forced : No

Text
ID : 4
Format : UTF-8
Codec ID : S_TEXT/UTF8
Codec ID/Info : UTF-8 Plain Text
Title : English
Language : English
Default : No
Forced : No



Скачать Куртизанки.Harlots.(Сезон.01).[2017.драма.WEB-DL.720p].[MVO].(FilmsClub).+.[Orig].(Eng).torrent без регистрации
Золото ЗОЛОТАЯ РАЗДАЧА! СКАЧАННОЕ НЕ ЗАСЧИТЫВАЕТСЯ! Золото
Дата: Зарегистрирован   [ Тип: внутренний ] Как тут cкачать?
MAGNET ссылка
MAGNET ссылка


Скачать .torrent

104 KB

Статус: проверено DHT
Скачан: торрент - 65 раз, раздача полностью - 12 раз
Размер: 10,26 GB
Оценка:  - (Голосов: 0)
Поблагодарили: 0
Поделиться ссылкой на эту раздачу с друзьями:
В контактеFacebookОдноклассникиTwitterLivejournalМой МирLiveinternet
 

 
Показать сообщения:    


Вы не можете начинать темы
Вы не можете отвечать на сообщения
Вы не можете редактировать свои сообщения
Вы не можете удалять свои сообщения
Вы не можете голосовать в опросах
Вы не можете прикреплять файлы к сообщениям
Вы можете скачивать файлы