Loading...
Error

Скачать Грешница / The Sinner (Сезон 01) (Антонио Кампос, Брэд Андерсон) [2017, триллер, WEBRip 1080p] [MVO] (FilmsClub) + [Orig] (Eng) торрент без регистрации

Статистика раздачи
Размер:  23,38 GB   |    Скачан:  55 раз
Сидов:  1  [  0 KB/s  ]   Личеров:  1  [  2 KB/s  ]  
 
 
 
Автор Сообщение

leon030982

[] 

Грешница | The Sinner
• Год выпуска: 2017
• Страна: США
• Жанр: Триллер
• Продолжительность: ~ 00:45:00
• Перевод: Профессиональный (многоголосый, закадровый) *FilmsClub*

• Режиссёр: Антонио Кампос, Брэд Андерсон

• В ролях: Джессика Бил, Джейкоб Бергер, Спенсер Гранезе, Эдриэнн Ловетт, Кристофер Эбботт, Патти Д Арбанвиль, Элейн дель Валье, Роберт Фунаро и др.

• Описание: История о молодой матери, совершающей ужасные акты насилия, понятия не имея, почему, и детективе, который становится одержим делом, стремится углубиться в прошлое женщины и выяснить причины такого поведения.



• Качество: WEBRip 1080p
• Формат: MKV
• Видео: AVC(High@L4.1) , 1,78:1 = 16:9, 1920x1080| 11,7 mbps| 23,976 fps
• Аудио 1: AC3, 48 kHz, 5.1 ch, 384 kbps, CBR - Rus
• Аудио 2: E-AC3, 48 kHz, 5.1 ch, 640 kbps, CBR - Eng
• Субтитры: Англиские
General
Unique ID : 239005359631211139319052022279944008527 (0xB3CEC2059F21E720A3F6BEE7ADF3F34F)
Complete name : F:\The.Sinner.S01.1080p-films.club\The.Sinner.S01E01.1080p.WEB-DL.DDP5.1.H.264-films.club.mkv
Format : Matroska
Format version : Version 4 / Version 2
File size : 4.14 GiB
Duration : 46 min 27 s
Overall bit rate mode : Variable
Overall bit rate : 12.8 Mb/s
Encoded date : UTC 2018-06-28 19:28:42
Writing application : mkvmerge v18.0.0 ('Apricity') 64-bit
Writing library : libebml v1.3.5 + libmatroska v1.4.8

Video
ID : 1
Format : AVC
Format/Info : Advanced Video Codec
Format profile : High@L4
Format settings : CABAC / 4 Ref Frames
Format settings, CABAC : Yes
Format settings, RefFrames : 4 frames
Codec ID : V_MPEG4/ISO/AVC
Duration : 46 min 27 s
Bit rate mode : Variable
Bit rate : 11.5 Mb/s
Maximum bit rate : 15.0 Mb/s
Width : 1 920 pixels
Height : 1 080 pixels
Display aspect ratio : 16:9
Frame rate mode : Constant
Frame rate : 23.976 (24000/1001) FPS
Color space : YUV
Chroma subsampling : 4:2:0
Bit depth : 8 bits
Scan type : Progressive
Bits/(Pixel*Frame) : 0.231
Stream size : 3.73 GiB (90%)
Default : Yes
Forced : No
Color range : Limited
Color primaries : BT.709
Transfer characteristics : BT.709
Matrix coefficients : BT.709

Audio #1
ID : 2
Format : AC-3
Format/Info : Audio Coding 3
Format settings, Endianness : Big
Codec ID : A_AC3
Duration : 46 min 27 s
Bit rate mode : Constant
Bit rate : 384 kb/s
Channel(s) : 6 channels
Channel positions : Front: L C R, Side: L R, LFE
Sampling rate : 48.0 kHz
Frame rate : 31.250 FPS (1536 SPF)
Bit depth : 16 bits
Compression mode : Lossy
Stream size : 128 MiB (3%)
Title : films.club
Language : Russian
Service kind : Complete Main
Default : Yes
Forced : No

Audio #2
ID : 3
Format : E-AC-3
Format/Info : Enhanced Audio Coding 3
Format settings, Endianness : Big
Codec ID : A_EAC3
Duration : 46 min 27 s
Bit rate mode : Constant
Bit rate : 640 kb/s
Channel(s) : 6 channels
Channel positions : Front: L C R, Side: L R, LFE
Sampling rate : 48.0 kHz
Frame rate : 187.500 FPS (256 SPF)
Compression mode : Lossy
Stream size : 213 MiB (5%)
Title : Original
Language : English
Service kind : Complete Main
Default : No
Forced : No

Text
ID : 4
Format : UTF-8
Codec ID : S_TEXT/UTF8
Codec ID/Info : UTF-8 Plain Text
Title : English
Language : English
Default : No
Forced : No



Скачать Грешница.The.Sinner.(Сезон.01).(Антонио.Кампос.Брэд.Андерсон).[2017.триллер.WEBRip.1080p].[MVO].(FilmsClub).+.[Orig].(Eng).torrent без регистрации
Золото ЗОЛОТАЯ РАЗДАЧА! СКАЧАННОЕ НЕ ЗАСЧИТЫВАЕТСЯ! Золото
Дата: Зарегистрирован   [ Тип: внутренний ] Как тут cкачать?
MAGNET ссылка
MAGNET ссылка


Скачать .torrent

118 KB

Статус: проверено DHT
Скачан: торрент - 55 раз, раздача полностью - 6 раз
Размер: 23,38 GB
Оценка:  - (Голосов: 0)
Поблагодарили: 0
Поделиться ссылкой на эту раздачу с друзьями:
В контактеFacebookОдноклассникиTwitterLivejournalМой МирLiveinternet
 

 
Показать сообщения:    


Вы не можете начинать темы
Вы не можете отвечать на сообщения
Вы не можете редактировать свои сообщения
Вы не можете удалять свои сообщения
Вы не можете голосовать в опросах
Вы не можете прикреплять файлы к сообщениям
Вы можете скачивать файлы