Loading...
Error

Скачать Волк / Wolf (Джим Тайхутту) [2013, триллер, драма, криминал, BDRip] [1080p] [MVO (СВ Студия)] [R.G. Goldenshara] торрент без регистрации

Статистика раздачи
Размер:  4,37 GB   |    Скачан:  104 раза
Сидов:  1  [  0 KB/s  ]  
 
 
 
Автор Сообщение

sobmaster

[] 



Волк
Wolf




Год выпуска: 2013
Страна: Нидерланды
Выпущено: Habbekrats, New Amsterdam Film Company
Жанр: триллер, драма, криминал

Продолжительность: 02:02:38
Перевод: Профессиональный (многоголосый, закадровый) (СВ Студия)
Режиссер: Джим Тайхутту
Сценарий: Джим Тайхутту
Продюсер: Джулиус Понтен, Марина Блок, Кеес де Конинг
Оператор: Леннарт Ферстейген
Художник: Лике Шолман, Минке Лунтер
Монтаж: Воутер ван Луйин
В ролях:


Марван Кензари (Majid), Хемседдин Амар (Adil), Стеф Кёйперс (Foreman Flower Auction), Раймонд Тири (Ben), Насрдин Дхар (Hamza), Якоб Дервиг (Prohibation Officer), Бо Маертен (Tessa), Азиз Аказим (Vleermuis), Вернер Колф (Sergio), Мустафа Дуйгулу (Baris), Кахит Йолмез (Hakan), Слиман Дази (Arms trader), Хуб Смит (Money transport driver)
Зрители: Нидерланды 50.3 тыс.
Мировая премьера: 18 сентября 2013
MPAA: - Лицам до 17 лет обязательно присутствие взрослого

Описание: Маджид является талантливым кикбоксером. Его боевая доблесть приносит ему известность как на ринге, так и вне его. Но постепенно граница между кикбоксингом и преступной деятельностью начинает размываться, и Маджид перестает понимать, чего же он хочет на самом деле…


Качество: BDRip 1080p
Контейнер: MKV
Видео: AVC, 1920x1038 (1.85:1), 4655 kbps, 24.000 fps, 0.097 bpp
Аудио: русский /; AC3 /; 5.1 /; 48 kHz /; 448 kbps /; 16 bit; ||
Субтитры: английские
Навигация по главам: есть

АНОНСЫ ПОПУЛЯРНЫХ РАЗДАЧ


Код:

General
Unique ID                                : 183605645198230001850954688160471501788 (0x8A21293798A1C1DEBED5A0F9E2D4CBDC)
Complete name                            : E:\Мои рипы\Волк.2013.BDRip.1080p.MVO.mkv
Format                                   : Matroska
Format version                           : Version 4 / Version 2
File size                                : 4.37 GiB
Duration                                 : 2h 2mn
Overall bit rate                         : 5 104 Kbps
Encoded date                             : UTC 2018-07-12 22:56:35
Writing application                      : mkvmerge v6.8.0 ('Theme for Great Cities') 32bit built on Mar  2 2014 21:27:07
Writing library                          : libebml v1.3.0 + libmatroska v1.4.1

Video
ID                                       : 1
Format                                   : AVC
Format/Info                              : Advanced Video Codec
Format profile                           : High@L4.1
Format settings, CABAC                   : Yes
Format settings, ReFrames                : 4 frames
Codec ID                                 : V_MPEG4/ISO/AVC
Duration                                 : 2h 2mn
Bit rate                                 : 4 655 Kbps
Width                                    : 1 920 pixels
Height                                   : 1 038 pixels
Display aspect ratio                     : 1.85:1
Frame rate mode                          : Constant
Frame rate                               : 24.000 fps
Color space                              : YUV
Chroma subsampling                       : 4:2:0
Bit depth                                : 8 bits
Scan type                                : Progressive
Bits/(Pixel*Frame)                       : 0.097
Stream size                              : 3.90 GiB (89%)
Writing library                          : x264 core 130 r2273 b3065e6
Encoding settings                        : cabac=1 / ref=4 / deblock=1:-3:-3 / analyse=0x3:0x113 / me=umh / subme=11 / psy=1 / psy_rd=1.00:0.15 / mixed_ref=1 / me_range=48 / chroma_me=1 / trellis=2 / 8x8dct=1 / cqm=0 / deadzone=21,11 / fast_pskip=0 / chroma_qp_offset=-4 / threads=6 / lookahead_threads=1 / sliced_threads=0 / nr=0 / decimate=0 / interlaced=0 / bluray_compat=0 / constrained_intra=0 / bframes=8 / b_pyramid=2 / b_adapt=2 / b_bias=0 / direct=2 / weightb=1 / open_gop=0 / weightp=2 / keyint=250 / keyint_min=24 / scenecut=40 / intra_refresh=0 / rc=2pass / mbtree=0 / bitrate=4655 / ratetol=1.0 / qcomp=0.60 / qpmin=0 / qpmax=69 / qpstep=4 / cplxblur=20.0 / qblur=0.5 / ip_ratio=1.40 / pb_ratio=1.30 / aq=2:1.00
Language                                 : English
Default                                  : Yes
Forced                                   : No
Color primaries                          : Generic film
Matrix coefficients                      : YCgCo

Audio
ID                                       : 2
Format                                   : AC-3
Format/Info                              : Audio Coding 3
Mode extension                           : CM (complete main)
Format settings, Endianness              : Big
Codec ID                                 : A_AC3
Duration                                 : 2h 2mn
Bit rate mode                            : Constant
Bit rate                                 : 448 Kbps
Channel(s)                               : 6 channels
Channel positions                        : Front: L C R, Side: L R, LFE
Sampling rate                            : 48.0 KHz
Bit depth                                : 16 bits
Compression mode                         : Lossy
Stream size                              : 393 MiB (9%)
Title                                    : MVO
Language                                 : Russian
Default                                  : Yes
Forced                                   : No

Text
ID                                       : 3
Format                                   : UTF-8
Codec ID                                 : S_TEXT/UTF8
Codec ID/Info                            : UTF-8 Plain Text
Language                                 : English
Default                                  : No
Forced                                   : No

Menu
00:00:00.000                             : en:Chapter 1
00:10:26.250                             : en:Chapter 2
00:23:49.916                             : en:Chapter 3
00:31:07.375                             : en:Chapter 4
00:41:44.708                             : en:Chapter 5
00:54:39.875                             : en:Chapter 6
01:01:34.750                             : en:Chapter 7
01:12:15.041                             : en:Chapter 8
01:24:47.458                             : en:Chapter 9
01:33:18.250                             : en:Chapter 10
01:42:19.166                             : en:Chapter 11
01:54:58.541                             : en:Chapter 12
01:59:15.583                             : en:Chapter 13
02:02:37.583                             : en:Chapter 14






Скачать Волк.Wolf.(Джим.Тайхутту).[2013.триллер.драма.криминал.BDRip].[1080p].[MVO.(СВ.Студия)].[R.G.Goldenshara].torrent без регистрации
Золото ЗОЛОТАЯ РАЗДАЧА! СКАЧАННОЕ НЕ ЗАСЧИТЫВАЕТСЯ! Золото
Дата: Зарегистрирован   [ Тип: внутренний ] Как тут cкачать?
MAGNET ссылка
MAGNET ссылка


Скачать .torrent

11 KB

Статус: проверено DHT
Скачан: торрент - 104 раз, раздача полностью - 5 раз
Размер: 4,37 GB
Оценка:  5 (Голосов: 3)
Поблагодарили: 6
Поделиться ссылкой на эту раздачу с друзьями:
В контактеFacebookОдноклассникиTwitterLivejournalМой МирLiveinternet
 

 

sobmaster

[] 

Замена звука.
 
Показать сообщения:    


Вы не можете начинать темы
Вы не можете отвечать на сообщения
Вы не можете редактировать свои сообщения
Вы не можете удалять свои сообщения
Вы не можете голосовать в опросах
Вы не можете прикреплять файлы к сообщениям
Вы можете скачивать файлы