Loading...
Error

Скачать Смерти вопреки / Hard to Kill (Брюс Мэлмат) [1990, боевик, триллер, драма, криминал, BDRip] [720p] [Dub] торрент без регистрации

Статистика раздачи
Размер:  2,17 GB   |    Скачан:  144 раза
Сидов:  1  [  0 KB/s  ]  
 
 
 
Автор Сообщение

Marsianka

[] 

Информация о фильме
Название: Смерти вопреки
Оригинальное название: Hard to Kill
Год выхода: 1990
Жанр: боевик, триллер, драма, криминал
Режиссер: Брюс Мэлмат
В ролях: Стивен Сигал, Келли ЛеБрок, Уильям Сэдлер, Фредерик Коффин, Бонни Барроуз, Эндрю Блок, Брэнском Ричмонд, Чарльз Босуэлл, Зэкари Розенкранц, Лу Битти мл.

О фильме:
Коррумпированный калифорнийский политик и его наемники подстрелили лос-анджелесского детектива Мейсона Сторма. Они считали его мертвым. Но эта ошибка им дорого обойдется. Сторм живет смерти вопреки.Семь лет Сторм провел в тайном укрытии, где его выводили из коматозного состояния. Он очнулся с единственной целью мстить. С помощью преданной сиделки он готовится к схватке.Он совершенствуется в стрельбе, отрабатывает свои навыки боевых искусств и пользуется восточной медициной, чтобы вернуть себе силы. Его мастерство развернется в полную силу.



Страна: США
Продолжительность: 01:35:38
Перевод: Дубляж, R5

Файл
Кодек: h.264
Качество: BDRip 720p
Видео: 1 280x720,23.976 fps,2 911 Kbps,0.132 Bits/(Pixel*Frame)
Звук: AC-3,384 Kbps,6 channels,48.0 KHz
Субтитры: English,Russian
P P P P P P
Format : Matroska
Format version : Version 2
File size : 2.17 GiB
Duration : 1h 35mn
Overall bit rate : 3 252 Kbps
Movie name : Hard to Kill (1990) BDRip 720p .Element team
Encoded date : UTC 2012-08-04 16:43:49
Writing application : mkvmerge v4.0.0 ('The Stars were mine') сборка от Jun 6 2010 16:18:42
Writing library : libebml v1.0.0 + libmatroska v1.0.0

Video
ID : 1
Format : AVC
Format/Info : Advanced Video Codec
Format profile : High@L4.1
Format settings, CABAC : Yes
Format settings, ReFrames : 4 frames
Codec ID : V_MPEG4/ISO/AVC
Duration : 1h 35mn
Bit rate : 2 911 Kbps
Width : 1 280 pixels
Height : 720 pixels
Display aspect ratio : 16:9
Original display aspect ratio : 16:9
Frame rate mode : Variable
Frame rate : 23.976 fps
Color space : YUV
Chroma subsampling : 4:2:0
Bit depth : 8 bits
Scan type : Progressive
Bits/(Pixel*Frame) : 0.132
Stream size : 1.87 GiB (86%)
Title : Hard to Kill (1990) BDRip 720p .Element team
Writing library : x264 core 120 r2164
Encoding settings : cabac=1 / ref=4 / deblock=1:0:0 / analyse=0x3:0x133 / me=umh / subme=10 / psy=1 / psy_rd=1.00:0.10 / mixed_ref=1 / me_range=24 / chroma_me=1 / trellis=2 / 8x8dct=1 / cqm=0 / deadzone=21,12 / fast_pskip=0 / chroma_qp_offset=-3 / threads=12 / sliced_threads=0 / nr=1 / decimate=0 / interlaced=0 / bluray_compat=0 / constrained_intra=0 / bframes=6 / b_pyramid=2 / b_adapt=2 / b_bias=0 / direct=3 / weightb=1 / open_gop=1 / weightp=2 / keyint=230 / keyint_min=23 / scenecut=40 / intra_refresh=0 / rc_lookahead=60 / rc=abr / mbtree=1 / bitrate=2911 / ratetol=1.0 / qcomp=0.90 / qpmin=1 / qpmax=69 / qpstep=5 / vbv_maxrate=24000 / vbv_bufsize=24000 / nal_hrd=none / ip_ratio=1.40 / aq=1:1.00
Language : English

Audio
ID : 2
Format : AC-3
Format/Info : Audio Coding 3
Mode extension : CM (complete main)
Codec ID : A_AC3
Duration : 1h 35mn
Bit rate mode : Constant
Bit rate : 384 Kbps
Channel(s) : 6 channels
Channel positions : Front: L C R, Side: L R, LFE
Sampling rate : 48.0 KHz
Bit depth : 16 bits
Compression mode : Lossy
Stream size : 263 MiB (12%)
Title : Дубляж, R5
Language : Russian

Text #1
ID : 3
Format : PGS
Codec ID : S_HDMV/PGS
Codec ID/Info : The same subtitle format used on BDs/HD-DVDs

Text #2
ID : 4
Format : PGS
Codec ID : S_HDMV/PGS
Codec ID/Info : The same subtitle format used on BDs/HD-DVDs

Menu
00:00:00.000 : :› 01
00:04:59.590 : :› 02
00:09:26.607 : :› 03
00:14:08.556 : :› 04
00:17:27.588 : :› 05
00:21:37.921 : :› 06
00:24:27.215 : :› 07
00:27:45.705 : :› 08
00:34:58.346 : :› 09
00:37:55.189 : :› 10
00:41:30.738 : :› 11
00:43:16.218 : :› 12
00:46:47.721 : :› 13
00:49:36.181 : :› 14
00:52:50.250 : :› 15
00:54:55.125 : :› 16
00:59:41.869 : :› 17
01:07:23.789 : :› 18
01:09:26.495 : :› 19
01:14:41.226 : :› 20
01:17:57.631 : :› 21
01:22:29.027 : :› 22
01:24:15.050 : :› 23
01:25:43.972 : :› 24
01:27:59.274 : :› 25
01:33:06.581 : :› 26
01:35:37.732 : :› 27
Релиз от:



Скачать Смерти.вопреки.Hard.to.Kill.(Брюс.Мэлмат).[1990.боевик.триллер.драма.криминал.BDRip].[720p].[Dub].torrent без регистрации
Золото ЗОЛОТАЯ РАЗДАЧА! СКАЧАННОЕ НЕ ЗАСЧИТЫВАЕТСЯ! Золото
Дата: Зарегистрирован   [ Тип: внутренний ] Как тут cкачать?
MAGNET ссылка
MAGNET ссылка


Скачать .torrent

11 KB

Статус: проверено DHT
Скачан: торрент - 144 раз, раздача полностью - 39 раз
Размер: 2,17 GB
Оценка:  - (Голосов: 0)
Поблагодарили: 3
Поделиться ссылкой на эту раздачу с друзьями:
В контактеFacebookОдноклассникиTwitterLivejournalМой МирLiveinternet
 

 
Показать сообщения:    


Вы не можете начинать темы
Вы не можете отвечать на сообщения
Вы не можете редактировать свои сообщения
Вы не можете удалять свои сообщения
Вы не можете голосовать в опросах
Вы не можете прикреплять файлы к сообщениям
Вы можете скачивать файлы