Loading...
Error

Скачать Счастливый случай / It Could Happen to You (Эндрю Бергман) [1994, драма, мелодрама, комедия, BDRip] [720p] [MVO] торрент без регистрации

Статистика раздачи
Размер:  4,37 GB   |    Скачан:  128 раз
Сидов:  1  [  0 KB/s  ]  
 
 
 
Автор Сообщение

Marsianka

[] 

'Courier New / Счастливый случай

It Could Happen to You



«Это не о деньгах. Речь идет о жизни &raquo.

Год выпуска: 1994
Страна: США
Жанр: драма, мелодрама, комедия
Продолжительность: 01:41:31
Перевод: Профессиональный (многоголосый, закадровый)

Режиссер: Эндрю Бергман
Продюссер: Гари Эделсон, Крэйг Баумгартен, Джозеф Хартвик
Сценарий: Джейн Андерсон

Премьера в мире: 29 июля 1994



В ролях: Николас Кейдж, Бриджит Фонда, Рози Перес, Уенделл Пирс, Айзек Хейз, Виктор Рохас, Сеймур Кэссел, Стенли Туччи, Дж. Э. Фримен, Ред Баттонс

Описание: Самая большая неудача в жизни полицейского Чарли Лэнга это его жена, которая с утра до вечера может говорить и думать только о деньгах. У него самого их не хватает даже на чаевые очаровательной официантке. В кармане только лотерейный билет, купленный по совету мудрой супруги.Не задумываясь, Чарли обещает девушке половину своего выигрыша. И вот четыре миллиона долларов сваливаются ему на голову. Первую половину суммы уже успешно тратит его жена, окончательно поглупевшая от такого счастья. Теперь Чарли богат, но он не забыл, что еще должен заплатить чаевые... в два миллиона долларов.

Качество: BDRip
Формат: MKV
Видео кодек: H.264
Аудио кодек: AC3
Видео: English, 5398 Кбит/сек, 1280*688 (16:9), в 23,976 кадр/сек, AVC (High@L5.0)
Аудио: Russian, 256 Кбит/сек, 48,0 КГц, 16 бит, 2 канала(ов), AC-3
Аудио:Russian, 256 Кбит/сек, 48,0 КГц, 16 бит, 2 канала(ов), AC-3|Пронин
Аудио:English, 256 Кбит/сек, 48,0 КГц, 16 бит, 6 канала(ов), AC-3

Уникальный идентификатор : 244321412784193674152604544624105361186 (0xB7CE97ADA93A733CBAF2A537584C0F22)
Полное имя : E:торрентIt Could Happen to You(1994)BDRip 720p.mkv
Формат : Matroska
Размер файла : 4,37 Гбайт
Продолжительность : 1 ч. 41 м.
Общий поток : 6162 Кбит/сек
Дата кодирования : UTC 2011-03-07 07:02:28
Программа кодирования : mkvmerge v4.5.0 ('Speed of Light') built on Feb 1 2011 02:10:32
Библиотека кодирования : libebml v1.2.0 + libmatroska v1.1.0

Видео
Идентификатор : 1
Формат : AVC
Формат/Информация : Advanced Video Codec
Профиль формата : High@L5.0
Параметр CABAC формата : Да
Параметр ReFrames формата : 16 кадры
Идентификатор кодека : V_MPEG4/ISO/AVC
Продолжительность : 1 ч. 41 м.
Битрейт : 5398 Кбит/сек
Ширина : 1280 пикс.
Высота : 688 пикс.
Соотношение сторон : 16:9
Соотношение сторон в оригинале : 16:9
Частота кадров : 23,976 кадр/сек
Цветовое пространство : YUV
Подвыборка цветности : 4:2:0
Битовая глубина : 8 бит
Тип развёртки : Прогрессивная
Бит/(Пиксели*Кадры) : 0.256
Размер потока : 3,74 Гбайт (86%)
Библиотека кодирования : x264 core 114 r1913 5fd3dce
Настройки программы : cabac=1 / ref=16 / deblock=1:-3:-3 / analyse=0x3:0x133 / me=umh / subme=7 / psy=1 / psy_rd=1.00:0.15 / mixed_ref=1 / me_range=32 / chroma_me=1 / trellis=2 / 8x8dct=1 / cqm=0 / deadzone=21,11 / fast_pskip=0 / chroma_qp_offset=-3 / threads=6 / sliced_threads=0 / nr=0 / decimate=1 / interlaced=0 / constrained_intra=0 / bframes=5 / b_pyramid=2 / b_adapt=1 / b_bias=0 / direct=1 / weightb=0 / open_gop=0 / weightp=2 / keyint=250 / keyint_min=23 / scenecut=40 / intra_refresh=0 / rc_lookahead=40 / rc=2pass / mbtree=1 / bitrate=5398 / ratetol=1.0 / qcomp=0.80 / qpmin=10 / qpmax=51 / qpstep=4 / cplxblur=20.0 / qblur=0.5 / ip_ratio=1.40 / aq=1:1.00
Язык : English

Аудио #1
Идентификатор : 2
Формат : AC-3
Формат/Информация : Audio Coding 3
Расширение режима : CM (complete main)
Идентификатор кодека : A_AC3
Продолжительность : 1 ч. 41 м.
Вид битрейта : Постоянный
Битрейт : 256 Кбит/сек
Канал(ы) : 2 канала(ов)
Расположение каналов : Front: L R
Частота : 48,0 КГц
Битовая глубина : 16 бит
Метод сжатия : С потерями
Размер потока : 186 Мбайт (4%)
Язык : Russian

Аудио #2
Идентификатор : 3
Формат : AC-3
Формат/Информация : Audio Coding 3
Расширение режима : CM (complete main)
Идентификатор кодека : A_AC3
Продолжительность : 1 ч. 41 м.
Вид битрейта : Постоянный
Битрейт : 256 Кбит/сек
Канал(ы) : 2 канала(ов)
Расположение каналов : Front: L R
Частота : 48,0 КГц
Битовая глубина : 16 бит
Метод сжатия : С потерями
Размер потока : 186 Мбайт (4%)
Язык : Russian

Аудио #3
Идентификатор : 4
Формат : AC-3
Формат/Информация : Audio Coding 3
Расширение режима : CM (complete main)
Идентификатор кодека : A_AC3
Продолжительность : 1 ч. 41 м.
Вид битрейта : Постоянный
Битрейт : 256 Кбит/сек
Канал(ы) : 6 канала(ов)
Расположение каналов : Front: L C R, Side: L R, LFE
Частота : 48,0 КГц
Битовая глубина : 16 бит
Метод сжатия : С потерями
Размер потока : 186 Мбайт (4%)
Язык : English

Меню
00:00:00.000 : en:00:00:00.000
00:06:47.657 : en:00:06:47.657
00:10:20.495 : en:00:10:20.495
00:16:38.623 : en:00:16:38.623
00:20:57.840 : en:00:20:57.840
00:30:12.769 : en:00:30:12.769
00:39:18.398 : en:00:39:18.398
00:45:06.120 : en:00:45:06.120
00:50:29.735 : en:00:50:29.735
00:58:12.572 : en:00:58:12.572
01:04:44.839 : en:01:04:44.839
01:11:42.548 : en:01:11:42.548
01:14:40.476 : en:01:14:40.476
01:19:02.738 : en:01:19:02.738
01:25:47.559 : en:01:25:47.559
01:34:36.296 : en:01:34:36.296
Релиз от :



Скачать Счастливый.случай.It.Could.Happen.to.You.(Эндрю.Бергман).[1994.драма.мелодрама.комедия.BDRip].[720p].[MVO].torrent без регистрации
Золото ЗОЛОТАЯ РАЗДАЧА! СКАЧАННОЕ НЕ ЗАСЧИТЫВАЕТСЯ! Золото
Дата: Зарегистрирован   [ Тип: внутренний ] Как тут cкачать?
MAGNET ссылка
MAGNET ссылка


Скачать .torrent

22 KB

Статус: проверено DHT
Скачан: торрент - 128 раз, раздача полностью - 19 раз
Размер: 4,37 GB
Оценка:  - (Голосов: 0)
Поблагодарили: 2
Поделиться ссылкой на эту раздачу с друзьями:
В контактеFacebookОдноклассникиTwitterLivejournalМой МирLiveinternet
 

 
Показать сообщения:    


Вы не можете начинать темы
Вы не можете отвечать на сообщения
Вы не можете редактировать свои сообщения
Вы не можете удалять свои сообщения
Вы не можете голосовать в опросах
Вы не можете прикреплять файлы к сообщениям
Вы можете скачивать файлы