Loading...
Error

Скачать Пираньи / Piranha (Джо Данте) [1978, ужасы, фантастика, BDRip] [720p] [DVO]+[Sub] торрент без регистрации

Статистика раздачи
Размер:  5,46 GB   |    Скачан:  136 раз
Сидов:  1  [  0 KB/s  ]  
 
 
 
Автор Сообщение

Marsianka

[] 

Информация о фильме
Название: Пираньи
Оригинальное название: Piranha
Год выхода: 1978
Жанр: ужасы, фантастика
Режиссер: Джо Данте

В ролях:

Брэдфорд Диллман (Paul Grogan), Хезер Мензес (Maggie McKeown), Кевин МакКарти (Dr. Robert Hoak), Кинен Уинн (Jack), Дик Миллер (Buck Gardner), Барбара Стил (Dr. Mengers), Белинда Бэласки (Betsy), Мелоди Томас Скотт (Laura Dickinson), Брюс Гордон (Colonel Waxman), Бэрри Браун (Trooper), Пол Бартел (Mr. Dumont), Шеннон Коллинз (Suzie Grogan)
О фильме:
«Холодная война» закончилась, но все ли ее последствия и изобретения ушли в прошлое? В секретной лаборатории вывели гигантских пираний, способных выживать в любом климате. Базу закрыли, а оставшиеся рыбки, вместе со слитой случайно водой, попали в ближайшую речушку, оттуда в озеро Если прожорливые твари доберутся до океана, исчезнет все живое на земле!



Страна: США
Продолжительность: 01:33:50
Перевод: Профессиональный (двухголосый закадровый)

Файл
Кодек: H.264
Качество: BDRip 720p
Видео: 1280x720 (16:9), 23.976 fps, AVC, 7 499 Kbps
Звук:
AC3, 192 Kbps, 48.0 KHz, 2 ch (DVO)
AC3, 192 Kbps, 48.0 KHz, 2 ch (MVO. Андрей Гаврилов )
AC3, 448 Kbps, 48.0 KHz, 2 ch (ENG)
Субтитры: English ( srt )
Общее
Уникальный идентификатор : 190676543037196278119673661511777919644 (0x8F72F7658409C2E7AC017CD8819C229C)
Полное имя : E:торрентПираньи (1978. Piranha) .mkv
Формат : Matroska
Версия формата : Version 2
Размер файла : 5,46 Гбайт
Продолжительность : 1 ч. 33 м.
Общий поток : 8333 Кбит/сек
Дата кодирования : UTC 2012-08-17 07:02:50
Программа кодирования : mkvmerge v5.4.0 ('Piper') built on Mar 10 2012 13:34:39
Библиотека кодирования : libebml v1.2.3 + libmatroska v1.3.0

Видео
Идентификатор : 1
Формат : AVC
Формат/Информация : Advanced Video Codec
Профиль формата : High@L4.1
Параметр CABAC формата : Да
Параметр ReFrames формата : 8 кадров
Идентификатор кодека : V_MPEG4/ISO/AVC
Битрейт : 7499 Кбит/сек
Ширина : 1280 пикселей
Высота : 720 пикселей
Соотношение сторон : 16:9
Режим частоты кадров : Переменный
Частота кадров в оригинале : 23,976 кадра/сек
Цветовое пространство : YUV
Субдискретизация насыщенности : 4:2:0
Битовая глубина : 8 бит
Тип развёртки : Прогрессивная
Бит/(Пиксели*Кадры) : 0.339
Библиотека кодирования : x264 core 125 r2208 d9d2288
Настройки программы : cabac=1 / ref=8 / deblock=1:-3:-3 / analyse=0x3:0x113 / me=umh / subme=10 / psy=1 / psy_rd=1.00:0.25 / mixed_ref=1 / me_range=32 / chroma_me=1 / trellis=2 / 8x8dct=1 / cqm=0 / deadzone=21,11 / fast_pskip=0 / chroma_qp_offset=0 / threads=6 / lookahead_threads=1 / sliced_threads=0 / nr=0 / decimate=0 / interlaced=0 / bluray_compat=0 / constrained_intra=0 / bframes=8 / b_pyramid=2 / b_adapt=2 / b_bias=0 / direct=3 / weightb=1 / open_gop=0 / weightp=2 / keyint=240 / keyint_min=23 / scenecut=40 / intra_refresh=0 / rc=2pass / mbtree=0 / bitrate=7499 / ratetol=1.0 / qcomp=0.80 / qpmin=5 / qpmax=51 / qpstep=4 / cplxblur=20.0 / qblur=0.5 / ip_ratio=1.40 / pb_ratio=1.30 / aq=1:0.70
Язык : English
Default : Да
Forced : Нет

Аудио #1
Идентификатор : 2
Формат : AC-3
Формат/Информация : Audio Coding 3
Расширение режима : CM (complete main)
Параметр Endianness формата : Big
Идентификатор кодека : A_AC3
Продолжительность : 1 ч. 33 м.
Вид битрейта : Постоянный
Битрейт : 192 Кбит/сек
Каналы : 2 канала
Расположение каналов : Front: L R
Частота : 48,0 КГц
Битовая глубина : 16 бит
Метод сжатия : С потерями
Размер потока : 129 Мбайт (2%)
Заголовок : DVO
Язык : Russian
Default : Да
Forced : Нет

Аудио #2
Идентификатор : 3
Формат : AC-3
Формат/Информация : Audio Coding 3
Расширение режима : CM (complete main)
Параметр Endianness формата : Big
Идентификатор кодека : A_AC3
Продолжительность : 1 ч. 33 м.
Вид битрейта : Постоянный
Битрейт : 192 Кбит/сек
Каналы : 2 канала
Расположение каналов : Front: L R
Частота : 48,0 КГц
Битовая глубина : 16 бит
Метод сжатия : С потерями
Размер потока : 129 Мбайт (2%)
Заголовок : AVO . Андрей Гаврилов
Язык : Russian
Default : Нет
Forced : Нет

Аудио #3
Идентификатор : 4
Формат : AC-3
Формат/Информация : Audio Coding 3
Расширение режима : CM (complete main)
Параметр Endianness формата : Big
Идентификатор кодека : A_AC3
Продолжительность : 1 ч. 33 м.
Вид битрейта : Постоянный
Битрейт : 448 Кбит/сек
Каналы : 2 канала
Расположение каналов : Front: L R
Частота : 48,0 КГц
Битовая глубина : 16 бит
Метод сжатия : С потерями
Размер потока : 301 Мбайт (5%)
Язык : English
Default : Нет
Forced : Нет

Текст
Идентификатор : 5
Формат : UTF-8
Идентификатор кодека : S_TEXT/UTF8
Идентификатор кодека/Информация : UTF-8 Plain Text
Язык : English
Default : Нет
Forced : Нет
Релиз от:



Скачать Пираньи.Piranha.(Джо.Данте).[1978.ужасы.фантастика.BDRip].[720p].[DVO]+[Sub].torrent без регистрации
Золото ЗОЛОТАЯ РАЗДАЧА! СКАЧАННОЕ НЕ ЗАСЧИТЫВАЕТСЯ! Золото
Дата: Зарегистрирован   [ Тип: внутренний ] Как тут cкачать?
MAGNET ссылка
MAGNET ссылка


Скачать .torrent

28 KB

Статус: проверено DHT
Скачан: торрент - 136 раз, раздача полностью - 14 раз
Размер: 5,46 GB
Оценка:  - (Голосов: 0)
Поблагодарили: 2
Поделиться ссылкой на эту раздачу с друзьями:
В контактеFacebookОдноклассникиTwitterLivejournalМой МирLiveinternet
 

 
Показать сообщения:    


Вы не можете начинать темы
Вы не можете отвечать на сообщения
Вы не можете редактировать свои сообщения
Вы не можете удалять свои сообщения
Вы не можете голосовать в опросах
Вы не можете прикреплять файлы к сообщениям
Вы можете скачивать файлы