Loading...
Error

Скачать Кошмар на улице Вязов 6: Фредди мертв / Freddy's Dead: The Final Nightmare (Рейчел Тэлалей) [1991, ужасы, триллер, BDRip] [1080p] [MVO]+[Sub] торрент без регистрации

Статистика раздачи
Размер:  7,94 GB   |    Скачан:  143 раза
Сидов:  1  [  0 KB/s  ]  
 
 
 
Автор Сообщение

Marsianka

[] 

Кошмар на улице Вязов 6: Фредди мертв

Freddy's Dead: The Final Nightmare

«Born November 2nd 1984...Dies September 1991»


Год выпуска: 1991
Страна: США
Жанр: ужасы, триллер
Продолжительность: 01:29:12
Перевод: Профессиональный (многоголосый закадровый)
Субтитры: Russian (UTF-8), English (UTF-8)

Режиссер: Рейчел Тэлалей
Сценарий: Майкл Де Лука, Уэс Крэйвен, Рейчел Тэлалей
Продюсер: Роберт Шэй, Арон Уорнер, Майкл Де Лука, ...
Оператор: Деклан Куинн
Композитор: Брайан Мэй
Художник: С.Дж. Строун, Джеймс Р. Бэрроус, Нэнроуз Бучман, ...
Монтаж: Дженис Хэмптон

В ролях: Роберт Инглунд / Robert Englund (Freddy Krueger), Лиза Зейн / Lisa Zane (Maggie Burroughs), Шон Гринблатт / Shon Greenblatt (John Doe), Лесли Дин / Lezlie Deane (Tracy), Рики Дин Логан / Ricky Dean Logan (Carlos), Брекин Мейер / Breckin Meyer (Spencer), Яфет Котто / Yaphet Kotto (Doc), Том Арнольд / Tom Arnold (в титрах: Mr. Tom Arnold) (Childless Man)


Описание: Здесь выясняются причины появления духа-изверга Фредди Крюгера, с самого начала мстившего жителям своего родного городка. С детства заброшенный всеми, Фредди вырос очень озлобленным. Его терзает мания убийства, и он убивает детей, заманивая их в старую котельную. Когда суд по формальным причинам выносит маньяку оправдательный приговор, разъяренные родители жертв линчуют его.

Бюджет: $11 000 000
Сборы в США: $34 872 033
Премьера (мир): 5 сентября 1991, ...
Релиз на DVD: 18 сентября 2008, «CP-Digital», ...
Рейтинг MPAA: Лицам до 17 лет обязательно присутствие взрослого



Качество: BDRip.1080р
Формат: MKV
Видео кодек: AVC
Аудио кодеk: AC3
Видео: 1920x1080 (16:9), 23.976 fps, AVC, 10.4 Mbps

Сэмпл
Аудио #1: AC3, 192 Kbps, 48.0 KHz, 2 ch (DVO - HTB)
Аудио #2: AC3, 448 Kbps, 48.0 KHz, 6 ch (MVO - Позитив)
Аудио #3: AC3, 448 Kbps, 48.0 KHz, 6 ch (MVO - Киномания)
Аудио #4: AC3, 192 Kbps, 48.0 KHz, 2 ch (MVO - CP Digital)
Аудио #5: AC3, 448 Kbps, 48.0 KHz, 6 ch (AVO - А. Гаврилов)
Аудио #6: AC3, 192 Kbps, 48.0 KHz, 2 ch (AVO - В. Горчаков)
Аудио #7: AC3, 448 Kbps, 48.0 KHz, 6 ch (English)


Лог:
- x264 [info]: frame I:819 Avg QP:17.77 size:148690
- x264 [info]: frame P:38642 Avg QP:20.52 size: 85121
- x264 [info]: frame B:88868 Avg QP:22.63 size: 39687

General
Complete name : Koshmar.na.ulice.Vyazov.1991.BDRip.1080р.mkv
Format : Matroska
File size : 7.94 GiB
Duration : 1h 29mn
Overall bit rate : 12.7 Mbps
Encoded date : UTC 2013-06-30 11:41:44
Writing application : mkvmerge v6.1.0 ('Old Devil') built on Mar 2 2013 14:32:37
Writing library : libebml v1.3.0 + libmatroska v1.4.0

Video
ID : 1
Format : AVC
Format/Info : Advanced Video Codec
Format profile : High@L4.1
Format settings, CABAC : Yes
Format settings, ReFrames : 4 frames
Muxing mode : Container profile=Unknown@4.1
Codec ID : V_MPEG4/ISO/AVC
Duration : 1h 29mn
Bit rate : 10.4 Mbps
Width : 1 920 pixels
Height : 1 080 pixels
Display aspect ratio : 16:9
Frame rate : 23.976 fps
Color space : YUV
Chroma subsampling : 4:2:0
Bit depth : 8 bits
Scan type : Progressive
Bits/(Pixel*Frame) : 0.209
Stream size : 6.31 GiB (79%)
Writing library : x264 core 133 r2334 a3ac64b
Encoding settings : cabac=1 / ref=4 / deblock=1:-1:-1 / analyse=0x3:0x133 / me=umh / subme=10 / psy=1 / psy_rd=1.00:0.00 / mixed_ref=1 / me_range=32 / chroma_me=1 / trellis=2 / 8x8dct=1 / cqm=0 / deadzone=21,11 / fast_pskip=0 / chroma_qp_offset=-2 / threads=6 / lookahead_threads=1 / sliced_threads=0 / nr=0 / decimate=1 / interlaced=0 / bluray_compat=0 / constrained_intra=0 / bframes=10 / b_pyramid=2 / b_adapt=2 / b_bias=0 / direct=3 / weightb=1 / open_gop=0 / weightp=2 / keyint=240 / keyint_min=24 / scenecut=40 / intra_refresh=0 / rc_lookahead=50 / rc=2pass / mbtree=0 / bitrate=10390 / ratetol=2.0 / qcomp=1.00 / qpmin=0 / qpmax=51 / qpstep=4 / cplxblur=20.0 / qblur=0.5 / vbv_maxrate=50000 / vbv_bufsize=62500 / nal_hrd=none / ip_ratio=1.40 / pb_ratio=1.30 / aq=1:1.00
Color primaries : BT.709-5, BT.1361, IEC 61966-2-4, SMPTE RP177
Transfer characteristics : BT.709-5, BT.1361
Matrix coefficients : BT.709-5, BT.1361, IEC 61966-2-4 709, SMPTE RP177

Audio #1
ID : 2
Format : AC-3
Format/Info : Audio Coding 3
Mode extension : CM (complete main)
Codec ID : A_AC3
Duration : 1h 29mn
Bit rate mode : Constant
Bit rate : 192 Kbps
Channel(s) : 2 channels
Channel positions : Front: L R
Sampling rate : 48.0 KHz
Bit depth : 16 bits
Stream size : 123 MiB (2%)
Title : DVO - HTB
Language : Russian

Audio #2
ID : 3
Format : AC-3
Format/Info : Audio Coding 3
Mode extension : CM (complete main)
Codec ID : A_AC3
Duration : 1h 29mn
Bit rate mode : Constant
Bit rate : 448 Kbps
Channel(s) : 6 channels
Channel positions : Front: L C R, Side: L R, LFE
Sampling rate : 48.0 KHz
Bit depth : 16 bits
Stream size : 286 MiB (4%)
Title : MVO - Позитив
Language : Russian

Audio #3
ID : 4
Format : AC-3
Format/Info : Audio Coding 3
Mode extension : CM (complete main)
Codec ID : A_AC3
Duration : 1h 29mn
Bit rate mode : Constant
Bit rate : 448 Kbps
Channel(s) : 6 channels
Channel positions : Front: L C R, Side: L R, LFE
Sampling rate : 48.0 KHz
Bit depth : 16 bits
Stream size : 286 MiB (4%)
Title : MVO - Киномания
Language : Russian

Audio #4
ID : 5
Format : AC-3
Format/Info : Audio Coding 3
Mode extension : CM (complete main)
Codec ID : A_AC3
Duration : 1h 29mn
Bit rate mode : Constant
Bit rate : 192 Kbps
Channel(s) : 2 channels
Channel positions : Front: L R
Sampling rate : 48.0 KHz
Bit depth : 16 bits
Stream size : 123 MiB (2%)
Title : MVO - CP Digital
Language : Russian

Audio #5
ID : 6
Format : AC-3
Format/Info : Audio Coding 3
Mode extension : CM (complete main)
Codec ID : A_AC3
Duration : 1h 29mn
Bit rate mode : Constant
Bit rate : 448 Kbps
Channel(s) : 6 channels
Channel positions : Front: L C R, Side: L R, LFE
Sampling rate : 48.0 KHz
Bit depth : 16 bits
Stream size : 286 MiB (4%)
Title : AVO - А. Гаврилов
Language : Russian

Audio #6
ID : 7
Format : AC-3
Format/Info : Audio Coding 3
Mode extension : CM (complete main)
Codec ID : A_AC3
Duration : 1h 29mn
Bit rate mode : Constant
Bit rate : 192 Kbps
Channel(s) : 2 channels
Channel positions : Front: L R
Sampling rate : 48.0 KHz
Bit depth : 16 bits
Stream size : 123 MiB (2%)
Title : AVO - В. Горчаков
Language : Russian

Audio #7
ID : 8
Format : AC-3
Format/Info : Audio Coding 3
Mode extension : CM (complete main)
Codec ID : A_AC3
Duration : 1h 29mn
Bit rate mode : Constant
Bit rate : 448 Kbps
Channel(s) : 6 channels
Channel positions : Front: L C R, Side: L R, LFE
Sampling rate : 48.0 KHz
Bit depth : 16 bits
Stream size : 286 MiB (4%)
Language : English

Text #1
ID : 9
Format : UTF-8
Codec ID : S_TEXT/UTF8
Codec ID/Info : UTF-8 Plain Text
Title : CP Digital
Language : Russian

Text #2
ID : 10
Format : UTF-8
Codec ID : S_TEXT/UTF8
Codec ID/Info : UTF-8 Plain Text
Title : Киномания
Language : Russian

Text #3
ID : 11
Format : UTF-8
Codec ID : S_TEXT/UTF8
Codec ID/Info : UTF-8 Plain Text
Language : English

Menu
00:00:00.000 : en:00:00:00.000
00:04:45.285 : en:00:04:45.285
00:08:23.503 : en:00:08:23.503
00:12:56.776 : en:00:12:56.776
00:14:31.204 : en:00:14:31.204
00:15:43.109 : en:00:15:43.109
00:19:00.848 : en:00:19:00.848
00:20:25.558 : en:00:20:25.558
00:24:34.973 : en:00:24:34.973
00:29:40.153 : en:00:29:40.153
00:31:46.321 : en:00:31:46.321
00:39:35.039 : en:00:39:35.039
00:42:09.277 : en:00:42:09.277
00:46:23.906 : en:00:46:23.906
00:49:28.048 : en:00:49:28.048
00:54:46.492 : en:00:54:46.492
00:58:12.322 : en:00:58:12.322
01:02:32.916 : en:01:02:32.916
01:05:41.396 : en:01:05:41.396
01:08:32.900 : en:01:08:32.900
01:10:37.650 : en:01:10:37.650
01:17:34.108 : en:01:17:34.108
01:24:27.562 : en:01:24:27.562
Релиз группы:



Скачать Кошмар.на.улице.Вязов.6.Фредди.мертв.Freddy's.Dead.The.Final.Nightmare.(Рейчел.Тэлалей).[1991.ужасы.триллер.BDRip].[1080p].[MVO]+[Sub].torrent без регистрации
Золото ЗОЛОТАЯ РАЗДАЧА! СКАЧАННОЕ НЕ ЗАСЧИТЫВАЕТСЯ! Золото
Дата: Зарегистрирован   [ Тип: внутренний ] Как тут cкачать?
MAGNET ссылка
MAGNET ссылка


Скачать .torrent

40 KB

Статус: проверено DHT
Скачан: торрент - 143 раз, раздача полностью - 11 раз
Размер: 7,94 GB
Оценка:  5 (Голосов: 1)
Поблагодарили: 2
Поделиться ссылкой на эту раздачу с друзьями:
В контактеFacebookОдноклассникиTwitterLivejournalМой МирLiveinternet
 

 
Показать сообщения:    


Вы не можете начинать темы
Вы не можете отвечать на сообщения
Вы не можете редактировать свои сообщения
Вы не можете удалять свои сообщения
Вы не можете голосовать в опросах
Вы не можете прикреплять файлы к сообщениям
Вы можете скачивать файлы