Loading...
Error

Скачать Мужчины / The Men (Фред Зиннеманн) [1950, драма, BDRip] [720p] [MVO] торрент без регистрации

Статистика раздачи
Размер:  4,33 GB   |    Скачан:  126 раз
Сидов:  1  [  0 KB/s  ]  
 
 
 
Автор Сообщение

Marsianka

[] 

Информация о фильме
Название: Мужчины
Оригинальное название: The Men
Год выхода: 1950
Жанр: драма
Режиссер: Фред Зиннеманн / Fred Zinnemann
В ролях:
Марлон Брандо /Marlon Brando/,
Тереза Райт /Teresa Wright/, Эверетт Слоун /Everett Sloane/, Джек Уэбб /Jack Webb/, Ричард Эрдман /Richard Erdman/, Артур Джурадо /Arthur Jurado/, Вирджиния Фармер /Virginia Farmer/

О фильме:
Ветеран 2-ой Мировой войны Кен парализованный пулей снайпера, лежит в больнице. Кен обозлен, его все раздражает. Его девушка Эллен, приходит к нему в больницу, но Кен отказывается с ней встретиться. Доктор Брок пытается пробиться через "психологическую стену" Кена. Ему удается убедить ветерана начать программу физических упражнений, с помощью которых Кен научится управлять инвалидной коляской и водить специально оборудованный автомобиль. Эллен проявляет настойчивость. Вскоре Кен решает жениться на ней. Но, несмотря на принятое решение, ветерана все еще пожирают сомнения, гнев и жалость к самому себе...



Страна: США
Студия: Stanley Kramer Productions
Продолжительность: 01:27:16
Перевод: Профессиональный (многоголосый, закадровый)

Файл
Кодек: h.264
Качество: BDRip 720p
Видео: 984x720 (4:3), 23.976 fps, AVC, ~6595 Kbps, 0.388 bits/pixel
Звук:
Английский, 48.0 KHz, AC3, 1 ch, 384 Kbps
Русский, 48.0 KHz, AC3, 1 ch, 128 Kbps
Субтитры: нет
Общее
Уникальный идентификатор : 201807719292457842594910978283684588307 (0x97D2C0C1F238BD2EA9AE1A418E656B13)
Полное имя : D:FilmsMuzhchiny.1950.BDRip720p.mkv
Формат : Matroska
Версия формата : Version 4 / Version 2
Размер файла : 4,33 Гбайт
Продолжительность : 1 ч. 27 м.
Общий поток : 7106 Кбит/сек
Дата кодирования : UTC 2013-07-07 04:57:27
Программа кодирования : mkvmerge v6.2.0 ('Promised Land') built on Apr 28 2013 12:22:01
Библиотека кодирования : libebml v1.3.0 + libmatroska v1.4.0

Видео
Идентификатор : 1
Формат : AVC
Формат/Информация : Advanced Video Codec
Профиль формата : High@L4.1
Параметр CABAC формата : Да
Параметр ReFrames формата : 9 кадров
Идентификатор кодека : V_MPEG4/ISO/AVC
Продолжительность : 1 ч. 27 м.
Битрейт : 6595 Кбит/сек
Ширина : 984 пикселя
Высота : 720 пикселей
Соотношение сторон : 4:3
Режим частоты кадров : Постоянный
Частота кадров : 23,976 кадра/сек
Цветовое пространство : YUV
Субдискретизация насыщенности : 4:2:0
Битовая глубина : 8 бит
Тип развёртки : Прогрессивная
Бит/(Пиксели*Кадры) : 0.388
Размер потока : 3,93 Гбайт (91%)
Библиотека кодирования : x264 core 133 r2334 a3ac64b
Настройки программы : cabac=1 / ref=9 / deblock=1:-3:-3 / analyse=0x3:0x133 / me=umh / subme=10 / psy=1 / psy_rd=1.10:0.10 / mixed_ref=1 / me_range=32 / chroma_me=1 / trellis=2 / 8x8dct=1 / cqm=0 / deadzone=21,11 / fast_pskip=0 / chroma_qp_offset=-3 / threads=8 / lookahead_threads=2 / sliced_threads=0 / nr=0 / decimate=0 / interlaced=0 / bluray_compat=0 / constrained_intra=0 / bframes=15 / b_pyramid=2 / b_adapt=2 / b_bias=0 / direct=3 / weightb=1 / open_gop=0 / weightp=2 / keyint=240 / keyint_min=23 / scenecut=40 / intra_refresh=0 / rc_lookahead=60 / rc=2pass / mbtree=0 / bitrate=6595 / ratetol=1.0 / qcomp=0.60 / qpmin=0 / qpmax=60 / qpstep=4 / cplxblur=20.0 / qblur=0.5 / vbv_maxrate=50000 / vbv_bufsize=62500 / nal_hrd=none / ip_ratio=1.40 / pb_ratio=1.30 / aq=2:1.00
Default : Нет
Forced : Нет
Основные цвета : BT.709
Характеристики трансфера : BT.709
Коэффициенты матрицы : BT.709

Аудио #1
Идентификатор : 2
Формат : AC-3
Формат/Информация : Audio Coding 3
Расширение режима : CM (complete main)
Параметр Endianness формата : Big
Идентификатор кодека : A_AC3
Продолжительность : 1 ч. 27 м.
Вид битрейта : Постоянный
Битрейт : 384 Кбит/сек
Каналы : 1 канал
Расположение каналов : Front: C
Частота : 48,0 КГц
Битовая глубина : 16 бит
Метод сжатия : С потерями
Размер потока : 240 Мбайт (5%)
Язык : English
Default : Нет
Forced : Нет

Аудио #2
Идентификатор : 3
Формат : AC-3
Формат/Информация : Audio Coding 3
Расширение режима : CM (complete main)
Параметр Endianness формата : Big
Идентификатор кодека : A_AC3
Продолжительность : 1 ч. 27 м.
Вид битрейта : Постоянный
Битрейт : 128 Кбит/сек
Каналы : 1 канал
Расположение каналов : Front: C
Частота : 48,0 КГц
Битовая глубина : 16 бит
Метод сжатия : С потерями
Размер потока : 79,9 Мбайт (2%)
Язык : Russian
Default : Да
Forced : Нет

Меню
00:00:00.000 : en:00:00:00.000
00:12:22.992 : en:00:12:22.992
00:25:59.683 : en:00:25:59.683
00:34:40.787 : en:00:34:40.787
00:51:08.691 : en:00:51:08.691
00:58:14.199 : en:00:58:14.199
01:12:00.191 : en:01:12:00.191
01:18:10.019 : en:01:18:10.019
frame I:763 Avg QP:15.52 size:111035
frame P:23617 Avg QP:18.05 size: 53583
frame B:101139 Avg QP:20.56 size: 29310
Релиз от: Temperest



Скачать Мужчины.The.Men.(Фред.Зиннеманн).[1950.драма.BDRip].[720p].[MVO].torrent без регистрации
Золото ЗОЛОТАЯ РАЗДАЧА! СКАЧАННОЕ НЕ ЗАСЧИТЫВАЕТСЯ! Золото
Дата: Зарегистрирован   [ Тип: внутренний ] Как тут cкачать?
MAGNET ссылка
MAGNET ссылка


Скачать .torrent

11 KB

Статус: проверено DHT
Скачан: торрент - 126 раз, раздача полностью - 0 раз
Размер: 4,33 GB
Оценка:  - (Голосов: 0)
Поблагодарили: 1
Поделиться ссылкой на эту раздачу с друзьями:
В контактеFacebookОдноклассникиTwitterLivejournalМой МирLiveinternet
 

 
Показать сообщения:    


Вы не можете начинать темы
Вы не можете отвечать на сообщения
Вы не можете редактировать свои сообщения
Вы не можете удалять свои сообщения
Вы не можете голосовать в опросах
Вы не можете прикреплять файлы к сообщениям
Вы можете скачивать файлы