Loading...
Error

Скачать Бешеный пес и Глори / Mad Dog and Glory (Джон МакНотон) [1993, драма, мелодрама, комедия, криминал, WEB-DL] [720p] [MVO]+[DVO]+[AVO]+[Оригинал]+[Sub] торрент без регистрации

Статистика раздачи
Размер:  3,23 GB   |    Скачан:  5387 раз
Сидов:  1  [  0 KB/s  ]  
 
 
 
Автор Сообщение

Marsianka

[] 

Информация о фильме
Название: Бешеный пес и Глори
Оригинальное название: Mad Dog and Glory
Год выхода: 1993
Жанр: драма, мелодрама, комедия, криминал
Режиссер: Джон МакНотон
В ролях: Роберт Де Ниро, Ума Турман, Билл Мюррей, Дэвид Карузо, Майк Старр, Том Таулз, Кэти Бейкер, Дерек Аннансиэйшн, Даг Хара, Ивэн Лайонел

О фильме:
История робкого полицейского - фотографа Уэйна Добби, в шутку прозванного коллегами Бешеным Псом, и гангстера Фрэнка Мило. Уэйн случайно спасает жизнь Фрэнка, и тот присылает ему в качестве подарка девушку Глори...



Страна: США
Продолжительность: 01:36:44
Перевод: Профессиональный многоголосый, профессиональный двухголосый, авторский одноголосый (А.Гаврилов)

Файл
Кодек: x264
Качество: WEB-DL 720p
Видео: 1280x690 at 23.976 fps, MPEG-4 AVC, ~4000 kbps avg
Aудио#1: Russian: 48 kHz, AC3, 2/0 (L,R) ch, ~192.00 kbps avg |Многоголосый закадровый|
Aудио#2: Russian: 48 kHz, AC3, 2/0 (L,R) ch, ~192.00 kbps avg |Двухголосый закадровый, ОРТ|
Aудио#3: Russian: 48 kHz, AC3, 2/0 (L,R) ch, ~192.00 kbps avg |Одноголосый закадровый, А.Гаврилов|
Aудио#4: English: 48 kHz, AAC, 2/0 (L,R) ch, ~160.00 kbps avg
Субтитры: English
Сохранены и подписаны оригинальные чаптеры.

Общее
Уникальный идентификатор : 229624952753578223425311709038775145236 (0xACC0284172C4DFAE830CEDCFDDDC9314)
Полное имя : Mad.Dog.and.Glory.1993.720p.WEB-DL.HDCLUB.by.Volshebnik.mkv
Формат : Matroska
Версия формата : Version 4 / Version 2
Размер файла : 3,23 Гбайт
Продолжительность : 1 ч. 36 м.
Общий поток : 4778 Кбит/сек
Дата кодирования : UTC 2013-07-10 17:26:48
Программа кодирования : mkvmerge v6.1.0 ('Old Devil') built on Mar 2 2013 14:32:37
Библиотека кодирования : libebml v1.3.0 + libmatroska v1.4.0

Видео
Идентификатор : 1
Формат : AVC
Формат/Информация : Advanced Video Codec
Профиль формата : High@L3.1
Параметр CABAC формата : Нет
Параметр ReFrames формата : 2 кадра
Идентификатор кодека : V_MPEG4/ISO/AVC
Продолжительность : 1 ч. 36 м.
Ширина : 1280 пикселей
Высота : 690 пикселей
Соотношение сторон : 1,85:1
Режим частоты кадров : Постоянный
Частота кадров : 23,976 кадра/сек
Цветовое пространство : YUV
Субдискретизация насыщенности : 4:2:0
Битовая глубина : 8 бит
Тип развёртки : Прогрессивная
Заголовок : Mad.Dog.and.Glory.1993.720p.WEB-DL.HDCLUB
Язык : English
Default : Да
Forced : Нет
Основные цвета : BT.709
Характеристики трансфера : BT.709
Коэффициенты матрицы : BT.709

Аудио #1
Идентификатор : 2
Формат : AC-3
Формат/Информация : Audio Coding 3
Расширение режима : CM (complete main)
Параметр Endianness формата : Big
Идентификатор кодека : A_AC3
Продолжительность : 1 ч. 36 м.
Вид битрейта : Постоянный
Битрейт : 192 Кбит/сек
Каналы : 2 канала
Расположение каналов : Front: L R
Частота : 48,0 КГц
Битовая глубина : 16 бит
Метод сжатия : С потерями
Размер потока : 133 Мбайт (4%)
Заголовок : Профессиональный (многоголосый, закадровый) - AC3, 192kbps, 2ch, 48kHz
Язык : Russian
Default : Да
Forced : Нет

Аудио #2
Идентификатор : 3
Формат : AC-3
Формат/Информация : Audio Coding 3
Расширение режима : CM (complete main)
Параметр Endianness формата : Big
Идентификатор кодека : A_AC3
Продолжительность : 1 ч. 36 м.
Вид битрейта : Постоянный
Битрейт : 192 Кбит/сек
Каналы : 2 канала
Расположение каналов : Front: L R
Частота : 48,0 КГц
Битовая глубина : 16 бит
Метод сжатия : С потерями
Размер потока : 133 Мбайт (4%)
Заголовок : Профессиональный (многоголосый, закадровый) ОРТ - AC3, 192kbps, 2ch, 48kHz
Язык : Russian
Default : Нет
Forced : Нет

Аудио #3
Идентификатор : 4
Формат : AC-3
Формат/Информация : Audio Coding 3
Расширение режима : CM (complete main)
Параметр Endianness формата : Big
Идентификатор кодека : A_AC3
Продолжительность : 1 ч. 36 м.
Вид битрейта : Постоянный
Битрейт : 192 Кбит/сек
Каналы : 2 канала
Расположение каналов : Front: L R
Частота : 48,0 КГц
Битовая глубина : 16 бит
Метод сжатия : С потерями
Размер потока : 133 Мбайт (4%)
Заголовок : Авторский перевод Андрея Гаврилова - AC3, 192kbps, 2ch, 48kHz
Язык : Russian
Default : Нет
Forced : Нет

Аудио #4
Идентификатор : 5
Формат : AAC
Формат/Информация : Advanced Audio Codec
Профиль формата : LC
Идентификатор кодека : A_AAC
Продолжительность : 1 ч. 36 м.
Каналы : 2 канала
Расположение каналов : Front: L R
Частота : 48,0 КГц
Метод сжатия : С потерями
Заголовок : Оригинальная дорожка (English) - AAC 2.0
Язык : English
Default : Нет
Forced : Нет

Текст
Идентификатор : 6
Формат : UTF-8
Идентификатор кодека : S_TEXT/UTF8
Идентификатор кодека/Информация : UTF-8 Plain Text
Язык : English
Default : Нет
Forced : Нет

Меню
00:00:00.000 : en:Yo, Mad Dog, Youre Up (Main Titles)
00:06:25.000 : en:Crime Scene
00:11:53.000 : en:A Mysterious Invitation
00:18:21.000 : en:Frank the Money Store
00:24:07.000 : en:Fast Friends
00:31:21.000 : en:Glorious Payback
00:39:10.000 : en:A Family Debt
00:43:14.000 : en:No Guts, No Glory
00:48:29.000 : en:Normal Couple
00:54:53.000 : en:Picture Perfect
01:00:32.000 : en:Just A Gigolo
01:03:10.000 : en:In The Neighborhood
01:08:09.000 : en:Not Going Back
01:11:51.000 : en:Moving Day
01:19:24.000 : en:Buying a Life
01:24:20.000 : en:Time to Pay
01:31:42.000 : en:Going Home
01:33:09.000 : en:End Titles
Релиз от: by Volshebnik



Скачать Бешеный.пес.и.Глори.Mad.Dog.and.Glory.(Джон.МакНотон).[1993.драма.мелодрама.комедия.криминал.WEB-DL].[720p].[MVO]+[DVO]+[AVO]+[Оригинал]+[Sub].torrent без регистрации
Золото ЗОЛОТАЯ РАЗДАЧА! СКАЧАННОЕ НЕ ЗАСЧИТЫВАЕТСЯ! Золото
Дата: Зарегистрирован   [ Тип: внутренний ] Как тут cкачать?
MAGNET ссылка
MAGNET ссылка


Скачать .torrent

17 KB

Статус: проверено DHT
Скачан: торрент - 5387 раз, раздача полностью - 12 раз
Размер: 3,23 GB
Оценка:  - (Голосов: 0)
Поблагодарили: 4
Поделиться ссылкой на эту раздачу с друзьями:
В контактеFacebookОдноклассникиTwitterLivejournalМой МирLiveinternet
 

 
Показать сообщения:    


Вы не можете начинать темы
Вы не можете отвечать на сообщения
Вы не можете редактировать свои сообщения
Вы не можете удалять свои сообщения
Вы не можете голосовать в опросах
Вы не можете прикреплять файлы к сообщениям
Вы можете скачивать файлы