Loading...
Error

Скачать Побег / The Getaway (Роджер Дональдсон) [1994, боевик, триллер, драма, мелодрама, криминал, приключения, HD-DVDRip] [1080p] [DVO]+[Оригинал]+[Sub]+[AVO]x2 торрент без регистрации

Статистика раздачи
Размер:  8,62 GB   |    Скачан:  146 раз
Сидов:  1  [  0 KB/s  ]  
 
 
 
Автор Сообщение

Marsianka

[] 

Информация о фильме
Название: Побег
Оригинальное название: The Getaway
Год выхода: 1994
Жанр: боевик, триллер, драма, мелодрама, криминал, приключения
Режиссер: Роджер Дональдсон
В ролях: Алек Болдуин, Ким Бейсингер, Майкл Мэдсен, Джеймс Вудс, Дэвид Морс, Дженнифер Тилли, Джеймс Стивенс, Ричард Фарнсуорт, Филип Сеймур Хоффман, Бертон Гиллиам

О фильме:
Профессиональный взломщик сейфов Док МакКой помог молодому преступнику-мексиканцу сбежать из-за решетки, доставил парня его дяде, но не почувствовал, откуда грозит настоящая опасность, и в результате сам попал в тюрьму. Спустя некоторое время Кэрол МакКой, жена Дока, переспала с продажным инспектором Джеком Беньоном, и тот поспособствовал досрочному освобождению «медвежатника».
Однако у Джека имелись чрезвычайно далеко идущие планы на ближайшее будущее Дока и Кэрол: под давлением шантажиста Беньона супруги должны были совершить ограбление банка



Страна: США, Япония
Студия: Universal Pictures, David Foster Productions
Продолжительность: 01:55:49
Перевод: Профессиональный (двухголосый, закадровый) + Оригинал

Файл
Кодек: x264
Качество: HD-DVDRip 1080p (источник: HDTRACKER / HD-DVD Remux / 1080p)
Видео: 1920х816 (2.35:1), 8743 Kbps, 23.976 fps, 0.233 bit/pixel

Размер: 7.95 GB
Аудио #1: 48.0 kHz, AC3 Dolby Digital, 3/2 (L,C,R,l,r) + LFE ch, 448 kbps [Двухголосый]
Аудио #2: 48.0 kHz, AC3 Dolby Digital, 3/2 (L,C,R,l,r) + LFE ch, 640 kbps [Английский]
Субтитры: Русские, английские

Отдельно в папке:
Аудио #3: 48.0 kHz, AC3 Dolby Digital, 3/2 (L,C,R,l,r) + LFE ch, 384 kbps [Авторский, А. Гаврилов]
Аудио #4: 48.0 kHz, AC3 Dolby Digital, 3/2 (L,C,R,l,r) + LFE ch, 448 kbps [Авторский, Ю. Живов]
Семпл
x264 [info]: frame I:1057 Avg QP:21.26 size:147795
x264 [info]: frame P:44899 Avg QP:23.63 size: 70439
x264 [info]: frame B:120652 Avg QP:25.37 size: 35398
General
Unique ID : 195720837121022307933716325011250284736 (0x933E764BDED697189AD0744136A108C0)
Complete name : E:The.Getaway.1994.x264.HD-DVDRip.1080p.UNRATEDThe.Getaway.1994.x264.HD-DVDRip.1080p.UNRATED.mkv
Format : Matroska
Format version : Version 4 / Version 2
File size : 7.95 GiB
Duration : 1h 55mn
Overall bit rate : 9 827 Kbps
Encoded date : UTC 2013-07-23 23:44:44
Writing application : mkvmerge v6.2.0 ('Promised Land') built on Apr 28 2013 12:22:01
Writing library : libebml v1.3.0 + libmatroska v1.4.0

Video
ID : 1
Format : AVC
Format/Info : Advanced Video Codec
Format profile : High@L4.1
Format settings, CABAC : Yes
Format settings, ReFrames : 5 frames
Codec ID : V_MPEG4/ISO/AVC
Duration : 1h 55mn
Bit rate : 8 743 Kbps
Width : 1 920 pixels
Height : 816 pixels
Display aspect ratio : 2.35:1
Frame rate mode : Constant
Frame rate : 23.976 fps
Color space : YUV
Chroma subsampling : 4:2:0
Bit depth : 8 bits
Scan type : Progressive
Bits/(Pixel*Frame) : 0.233
Stream size : 6.91 GiB (87%)
Writing library : x264 core 135 r2345 f0c1c53
Encoding settings : cabac=1 / ref=5 / deblock=1:0:0 / analyse=0x3:0x133 / me=tesa / subme=11 / psy=1 / psy_rd=1.00:0.10 / mixed_ref=1 / me_range=32 / chroma_me=1 / trellis=2 / 8x8dct=1 / cqm=0 / deadzone=21,11 / fast_pskip=0 / chroma_qp_offset=-3 / threads=12 / lookahead_threads=1 / sliced_threads=0 / nr=0 / decimate=0 / interlaced=0 / bluray_compat=0 / constrained_intra=0 / bframes=4 / b_pyramid=2 / b_adapt=2 / b_bias=0 / direct=3 / weightb=1 / open_gop=0 / weightp=2 / keyint=240 / keyint_min=23 / scenecut=40 / intra_refresh=0 / rc=2pass / mbtree=0 / bitrate=8743 / ratetol=1.0 / qcomp=0.60 / qpmin=0 / qpmax=69 / qpstep=4 / cplxblur=20.0 / qblur=0.5 / ip_ratio=1.40 / pb_ratio=1.30 / aq=1:1.00
Language : English
Default : Yes
Forced : No

Audio #1
ID : 2
Format : AC-3
Format/Info : Audio Coding 3
Mode extension : CM (complete main)
Format settings, Endianness : Big
Codec ID : A_AC3
Duration : 1h 55mn
Bit rate mode : Constant
Bit rate : 448 Kbps
Channel(s) : 6 channels
Channel positions : Front: L C R, Side: L R, LFE
Sampling rate : 48.0 KHz
Bit depth : 16 bits
Compression mode : Lossy
Stream size : 371 MiB (5%)
Title : AC3 5.1ch 448 kbps - Двухголосый
Language : Russian
Default : Yes
Forced : No

Audio #2
ID : 3
Format : AC-3
Format/Info : Audio Coding 3
Mode extension : CM (complete main)
Format settings, Endianness : Big
Codec ID : A_AC3
Duration : 1h 55mn
Bit rate mode : Constant
Bit rate : 640 Kbps
Channel(s) : 6 channels
Channel positions : Front: L C R, Side: L R, LFE
Sampling rate : 48.0 KHz
Bit depth : 16 bits
Compression mode : Lossy
Stream size : 530 MiB (7%)
Title : AC3 5.1ch 640 kbps - Английский
Language : English
Default : No
Forced : No

Text #1
ID : 4
Format : UTF-8
Codec ID : S_TEXT/UTF8
Codec ID/Info : UTF-8 Plain Text
Title : Русские
Language : Russian
Default : No
Forced : No

Text #2
ID : 5
Format : UTF-8
Codec ID : S_TEXT/UTF8
Codec ID/Info : UTF-8 Plain Text
Title : Английские
Language : English
Default : No
Forced : No

Menu
00:00:00.000 : en:
00:05:00.000 : en:
00:10:00.000 : en:
00:15:00.000 : en:
00:20:00.000 : en:
00:25:00.000 : en:
00:30:00.000 : en:
00:35:00.000 : en:
00:40:00.000 : en:
00:45:00.000 : en:
00:50:00.000 : en:
00:55:00.000 : en:
01:00:00.000 : en:
01:05:00.000 : en:
01:10:00.000 : en:
01:15:00.000 : en:
01:20:00.000 : en:
01:25:00.000 : en:
01:30:00.000 : en:
01:35:00.000 : en:
01:40:00.000 : en:
01:45:00.000 : en:
01:50:00.000 : en:
01:55:00.000 : en:



Скачать Побег.The.Getaway.(Роджер.Дональдсон).[1994.боевик.триллер.драма.мелодрама.криминал.приключения.HD-DVDRip].[1080p].[DVO]+[Оригинал]+[Sub]+[AVO]x2.torrent без регистрации
Золото ЗОЛОТАЯ РАЗДАЧА! СКАЧАННОЕ НЕ ЗАСЧИТЫВАЕТСЯ! Золото
Дата: Зарегистрирован   [ Тип: внутренний ] Как тут cкачать?
MAGNET ссылка
MAGNET ссылка


Скачать .torrent

22 KB

Статус: проверено DHT
Скачан: торрент - 146 раз, раздача полностью - 8 раз
Размер: 8,62 GB
Оценка:  5 (Голосов: 1)
Поблагодарили: 6
Поделиться ссылкой на эту раздачу с друзьями:
В контактеFacebookОдноклассникиTwitterLivejournalМой МирLiveinternet
 

 
Показать сообщения:    


Вы не можете начинать темы
Вы не можете отвечать на сообщения
Вы не можете редактировать свои сообщения
Вы не можете удалять свои сообщения
Вы не можете голосовать в опросах
Вы не можете прикреплять файлы к сообщениям
Вы можете скачивать файлы