Loading...
Error

Скачать Вчера, сегодня, завтра / Ieri, oggi, domani (Витторио Де Сика) [1963, комедия, мелодрама, BDRip] [1080p] [MVO]+[Sub] торрент без регистрации

Статистика раздачи
Размер:  8,68 GB   |    Скачан:  132 раза
Сидов:  1  [  0 KB/s  ]  
 
 
 
Автор Сообщение

Marsianka

[] 

Название: Вчера, сегодня, завтра
Оригинальное название: Ieri, oggi, domani
Год выпуска: 1963
Жанр: комедия, мелодрама
Выпущено: Франция, Италия, Compagnia Cinematografica Champion, Les Films Concordia
Режиссер: Витторио Де Сика
В ролях: Софи Лорен, Марчелло Мастроянни, Альдо Джуффре, Агостино Сальвьетти, Лино Маттера, Текла Скарано, Сильвия Монелли, Карло Крокколо, Паскуале Ченнамо, Тонино Чанчи

О фильме: Софи Лорен и Марчелло Мастроянни исполнили здесь по три роли в трёх комедийных новеллах о том, как итальянские женщины добиваются желаемого с помощью своей сексуальной привлекательности. Очень эротично выглядит Лорен, сыгравшая: а) жену безработного, вынужденную торговать контрабандными сигаретами, и рожать детей одного за другим, чтобы судебные приставы не описали имущество; б) эгоистичную светскую даму, выкидывающую своего любовника из автомобиля из-за ерунды; в) девицу легкого поведения, дающую обет целомудрия на целую неделю в тот момент, когда приехавший к ней любовник уже готов удушить её в порыве страсти. Во всех этих историях несчастный герой Марчелло Мастроянни пасует перед животной энергией своей пассии.



Качество: BDRip 1080p
Видео: MPEG-4 AVC, 9937 Kбит/с, 1920x816
Аудио: Русский (АС3, 2 ch, 192 Кбит/с), итальянский (AC3, 1 ch, 160 Кбит/с)
Размер: 8.68 ГБ
Продолжительность: 01:58:23
Перевод: Профессиональный многоголосый
Субтитры: Русские, английские
Оскар, 1965 год
Победитель (1):
Лучший фильм на иностранном языке «Италия»

Британская академия, 1965 год
Победитель (1):
Лучший иностранный актер (Марчелло Мастроянни)
Big_Bang

По-итальянски легко

Три новеллы, совершенно разные по характеру и содержанию, но все три - о любви, о страсти. Игра обворожительной и влюбляющей в себя Софи Лорен не может оставить зрителя равнодушным к её героиням. Впрочем, не стоит забывать и об обаятельном Марчелло Мастроянни. Дуэт Софи и Марчелло (прошу прощения за фамильярность) уже давно признан одним из лучших в истории кино, и с этим никак не поспоришь. Конечно, можно разобрать каждую из новелл отдельно, интерпретируя замысел режиссера, но, как мне кажется, это ни к чему. Все три новеллы атмосферны и эстетически приятны. Тут надо просто наслаждаться.

КинопоискMediaInfoОбщее
Полное имя : E:VideoVchera,segodnja,zavtra.1963.x264.BDRip.1080pVchera,segodnja,zavtra.1963.eng.srt
Размер файла : 229 Кбайт

Общее
Полное имя : E:VideoVchera,segodnja,zavtra.1963.x264.BDRip.1080pVchera,segodnja,zavtra.1963.Original.ita.ac3
Формат : AC-3
Формат/Информация : Audio Coding 3
Размер файла : 135 Мбайт
Продолжительность : 1 ч. 58 м.
Режим общего битрейта : Постоянный
Общий поток : 160 Кбит/сек

Аудио
Формат : AC-3
Формат/Информация : Audio Coding 3
Расширение режима : CM (complete main)
Параметр Endianness формата : Big
Продолжительность : 1 ч. 58 м.
Вид битрейта : Постоянный
Битрейт : 160 Кбит/сек
Каналы : 1 канал
Расположение каналов : Front: C
Частота : 48,0 КГц
Битовая глубина : 16 бит
Метод сжатия : С потерями
Размер потока : 135 Мбайт (100%)

Общее
Полное имя : E:VideoVchera,segodnja,zavtra.1963.x264.BDRip.1080pVchera,segodnja,zavtra.1963.rus.srt
Размер файла : 203 Кбайт

Общее
Уникальный идентификатор : 195150565236528622826958994673849484272 (0x92D0A1B8C00555968714384D5DB243F0)
Полное имя : E:VideoVchera,segodnja,zavtra.1963.x264.BDRip.1080pVchera,segodnja,zavtra.1963.x264.BDRip.1080p.mkv
Формат : Matroska
Версия формата : Version 4 / Version 2
Размер файла : 8,55 Гбайт
Продолжительность : 1 ч. 58 м.
Общий поток : 10,3 Мбит/сек
Название фильма : Вчера, сегодня, завтра / Ieri, oggi, domani / 1963 / BDRip -- STarankov
Дата кодирования : UTC 2013-07-25 10:14:15
Программа кодирования : mkvmerge v6.3.0 ('You can't stop me!') built on Jun 28 2013 20:09:41
Библиотека кодирования : libebml v1.3.0 + libmatroska v1.4.0

Видео
Идентификатор : 1
Формат : AVC
Формат/Информация : Advanced Video Codec
Профиль формата : High@L4.1
Параметр CABAC формата : Да
Параметр ReFrames формата : 5 кадров
Идентификатор кодека : V_MPEG4/ISO/AVC
Продолжительность : 1 ч. 58 м.
Битрейт : 9937 Кбит/сек
Ширина : 1920 пикселей
Высота : 816 пикселей
Соотношение сторон : 2,35:1
Режим частоты кадров : Постоянный
Частота кадров : 23,976 кадра/сек
Цветовое пространство : YUV
Субдискретизация насыщенности : 4:2:0
Битовая глубина : 8 бит
Тип развёртки : Прогрессивная
Бит/(Пиксели*Кадры) : 0.265
Размер потока : 8,22 Гбайт (96%)
Библиотека кодирования : x264 core 135 r2345 f0c1c53
Настройки программы : cabac=1 / ref=5 / deblock=1:-1:-1 / analyse=0x3:0x113 / me=umh / subme=10 / psy=1 / psy_rd=1.00:0.15 / mixed_ref=1 / me_range=24 / chroma_me=1 / trellis=2 / 8x8dct=1 / cqm=0 / deadzone=21,11 / fast_pskip=0 / chroma_qp_offset=-3 / threads=6 / lookahead_threads=1 / sliced_threads=0 / nr=0 / decimate=1 / interlaced=0 / bluray_compat=0 / constrained_intra=0 / bframes=8 / b_pyramid=2 / b_adapt=2 / b_bias=0 / direct=1 / weightb=1 / open_gop=0 / weightp=2 / keyint=230 / keyint_min=23 / scenecut=40 / intra_refresh=0 / rc_lookahead=40 / rc=crf / mbtree=0 / crf=20.0 / qcomp=0.60 / qpmin=0 / qpmax=69 / qpstep=4 / vbv_maxrate=50000 / vbv_bufsize=62500 / crf_max=0.0 / nal_hrd=none / ip_ratio=1.40 / pb_ratio=1.30 / aq=1:1.00
Язык : Italian
Default : Да
Forced : Нет

Аудио
Идентификатор : 2
Формат : AC-3
Формат/Информация : Audio Coding 3
Расширение режима : CM (complete main)
Параметр Endianness формата : Big
Идентификатор кодека : A_AC3
Продолжительность : 1 ч. 58 м.
Вид битрейта : Постоянный
Битрейт : 192 Кбит/сек
Каналы : 2 канала
Расположение каналов : Front: L R
Частота : 48,0 КГц
Битовая глубина : 16 бит
Метод сжатия : С потерями
Размер потока : 163 Мбайт (2%)
Заголовок : MVO (Film Prestige)
Язык : Russian
Default : Да
Forced : Нет



Скачать Вчера.сегодня.завтра.Ieri.oggi.domani.(Витторио.Де.Сика).[1963.комедия.мелодрама.BDRip].[1080p].[MVO]+[Sub].torrent без регистрации
Золото ЗОЛОТАЯ РАЗДАЧА! СКАЧАННОЕ НЕ ЗАСЧИТЫВАЕТСЯ! Золото
Дата: Зарегистрирован   [ Тип: внутренний ] Как тут cкачать?
MAGNET ссылка
MAGNET ссылка


Скачать .torrent

22 KB

Статус: проверено DHT
Скачан: торрент - 132 раз, раздача полностью - 169 раз
Размер: 8,68 GB
Оценка:  - (Голосов: 0)
Поблагодарили: 2
Поделиться ссылкой на эту раздачу с друзьями:
В контактеFacebookОдноклассникиTwitterLivejournalМой МирLiveinternet
 

 
Показать сообщения:    


Вы не можете начинать темы
Вы не можете отвечать на сообщения
Вы не можете редактировать свои сообщения
Вы не можете удалять свои сообщения
Вы не можете голосовать в опросах
Вы не можете прикреплять файлы к сообщениям
Вы можете скачивать файлы