Loading...
Error

Скачать Черный Дождь / Black Rain (Ридли Скотт) [1989, боевик, триллер, драма, криминал, BDRip] [1080p] [MVO]+[AVO]x2+[Оригинал]+[Sub] торрент без регистрации

Статистика раздачи
Размер:  7,95 GB   |    Скачан:  140 раз
Сидов:  1  [  0 KB/s  ]  
 
 
 
Автор Сообщение

Marsianka

[] 


Информация о фильме
Русское название: Черный Дождь
Оригинальное название: Black Rain
Год выхода: 1989
Жанр: боевик, триллер, драма, криминал
Режиссер: Ридли Скотт
Выпущено: США
Продолжительность: 02:05:18
Перевод: Профессиональный многоголосый, Авторский (А. Гаврилов) (Ю. Медведев)
В ролях: Майкл Дуглас, Энди Гарсиа, Кэн Такакура, Кейт Кэпшоу, Юсаку Мацуда, Сигеру Кояма, Джон Спенсер, Гуц Исимацу, Юя Утида, Томисабуро Вакаяма, Луис Гузман
Сюжет фильма
Двум нью-йоркским полицейским, в руки которых попадает безжалостный убийца, принадлежащий к японской мафии-якудза. Партнерам предстоит эскортировать преступника в Осаку, где его ждет суд. Но на японской земле злодею удается скрыться. Герои вместе с японским детективом бросаются на его поиски и оказываются втянутыми в кровавую войну гангстерских кланов.
Файл
Качество: BDRip 1080p (DVD9) (исходник Blu-ray Remux)
Видео: 1920x800, 7355 Кбит/сек, 23,976 кадр/сек, AVC, x264, High@L4.1, 2.40:1, 0.200 Бит/[Пиксели*Кадры], 2pass
Аудио 1: AC-3, 448 Кбит/сек, 6 канала(ов), 48,0 КГц - Профессиональный многоголосый / Русский
Аудио 2: AC-3, 448 Кбит/сек, 6 канала(ов), 48,0 КГц - Авторский (А. Гаврилов) / Русский
Аудио 3: AC-3, 192 Кбит/сек, 2 канала(ов), 48,0 КГц - Авторский (Ю. Медведев) / Русский
Аудио 4: AC-3, 640 Кбит/сек, 6 канала(ов), 48,0 КГц - Оригинал / Английский
Субтитры: Русские | Полные
Чаптеры: Есть

Релиз Группа | Автор Рипа:

Format : Matroska
Format version : Version 4 / Version 2
File size : 7.95 GiB
Duration : 2h 5mn
Overall bit rate : 9 079 Kbps
Movie name : Черный Дождь.(1989).BDRip.1080p.(DVD9).[NoLimits-Team]
Encoded date : UTC 2013-07-27 10:08:51
Writing application : mkvmerge v6.3.0 ('You can't stop me!') built on Jun 28 2013 20:09:41
Writing library : libebml v1.3.0 + libmatroska v1.4.0

Video
ID : 1
Format : AVC
Format/Info : Advanced Video Codec
Format profile : High@L4.1
Format settings, CABAC : Yes
Format settings, ReFrames : 5 frames
Codec ID : V_MPEG4/ISO/AVC
Duration : 2h 5mn
Bit rate : 7 355 Kbps
Width : 1 920 pixels
Height : 800 pixels
Display aspect ratio : 2.40:1
Frame rate mode : Constant
Frame rate : 23.976 fps
Color space : YUV
Chroma subsampling : 4:2:0
Bit depth : 8 bits
Scan type : Progressive
Bits/(Pixel*Frame) : 0.200
Stream size : 6.28 GiB (79%)
Title : Черный Дождь.(1989).BDRip.1080p.(DVD9).[NoLimits-Team]
Writing library : x264 core 135 r2345 f0c1c53
Encoding settings : cabac=1 / ref=5 / deblock=1:0:0 / analyse=0x3:0x113 / me=umh / subme=11 / psy=1 / psy_rd=1.00:0.00 / mixed_ref=1 / me_range=64 / chroma_me=1 / trellis=2 / 8x8dct=1 / cqm=0 / deadzone=21,11 / fast_pskip=0 / chroma_qp_offset=-2 / threads=12 / lookahead_threads=2 / sliced_threads=0 / nr=0 / decimate=1 / interlaced=0 / bluray_compat=0 / constrained_intra=0 / bframes=9 / b_pyramid=2 / b_adapt=2 / b_bias=0 / direct=3 / weightb=1 / open_gop=0 / weightp=2 / keyint=240 / keyint_min=23 / scenecut=40 / intra_refresh=0 / rc=2pass / mbtree=0 / bitrate=7355 / ratetol=2.0 / qcomp=0.60 / qpmin=0 / qpmax=51 / qpstep=4 / cplxblur=20.0 / qblur=0.5 / ip_ratio=1.40 / pb_ratio=1.30 / aq=1:1.00
Language : English
Default : Yes
Forced : No

Audio #1
ID : 2
Format : AC-3
Format/Info : Audio Coding 3
Mode extension : CM (complete main)
Format settings, Endianness : Big
Codec ID : A_AC3
Duration : 2h 5mn
Bit rate mode : Constant
Bit rate : 448 Kbps
Channel(s) : 6 channels
Channel positions : Front: L C R, Side: L R, LFE
Sampling rate : 48.0 KHz
Bit depth : 16 bits
Compression mode : Lossy
Stream size : 402 MiB (5%)
Title : Профессиональный многоголосый
Language : Russian
Default : Yes
Forced : No

Audio #2
ID : 3
Format : AC-3
Format/Info : Audio Coding 3
Mode extension : CM (complete main)
Format settings, Endianness : Big
Codec ID : A_AC3
Duration : 2h 5mn
Bit rate mode : Constant
Bit rate : 448 Kbps
Channel(s) : 6 channels
Channel positions : Front: L C R, Side: L R, LFE
Sampling rate : 48.0 KHz
Bit depth : 16 bits
Compression mode : Lossy
Stream size : 402 MiB (5%)
Title : Авторский (А. Гаврилов)
Language : Russian
Default : No
Forced : No

Audio #3
ID : 4
Format : AC-3
Format/Info : Audio Coding 3
Mode extension : CM (complete main)
Format settings, Endianness : Big
Codec ID : A_AC3
Duration : 2h 5mn
Bit rate mode : Constant
Bit rate : 192 Kbps
Channel(s) : 2 channels
Channel positions : Front: L R
Sampling rate : 48.0 KHz
Bit depth : 16 bits
Compression mode : Lossy
Stream size : 172 MiB (2%)
Title : Авторский (Ю. Медведев)
Language : Russian
Default : No
Forced : No

Audio #4
ID : 5
Format : AC-3
Format/Info : Audio Coding 3
Mode extension : CM (complete main)
Format settings, Endianness : Big
Codec ID : A_AC3
Duration : 2h 5mn
Bit rate mode : Constant
Bit rate : 640 Kbps
Channel(s) : 6 channels
Channel positions : Front: L C R, Side: L R, LFE
Sampling rate : 48.0 KHz
Bit depth : 16 bits
Compression mode : Lossy
Stream size : 574 MiB (7%)
Title : Оригинал / Английский
Language : English
Default : No
Forced : No

Text
ID : 6
Format : UTF-8
Codec ID : S_TEXT/UTF8
Codec ID/Info : UTF-8 Plain Text
Title : Русские (полные)
Default : Yes
Forced : No

Menu
00:00:00.000 : :Chapter 01
00:07:49.469 : :Chapter 02
00:15:38.938 : :Chapter 03
00:23:28.407 : :Chapter 04
00:31:17.876 : :Chapter 05
00:39:07.344 : :Chapter 06
00:46:56.814 : :Chapter 07
00:54:46.283 : :Chapter 08
01:02:35.752 : :Chapter 09
01:10:25.220 : :Chapter 10
01:18:14.689 : :Chapter 11
01:26:04.159 : :Chapter 12
01:33:53.628 : :Chapter 13
01:41:43.097 : :Chapter 14
01:49:32.566 : :Chapter 15
01:57:22.035 : :Chapter 16




Скачать Черный.Дождь.Black.Rain.(Ридли.Скотт).[1989.боевик.триллер.драма.криминал.BDRip].[1080p].[MVO]+[AVO]x2+[Оригинал]+[Sub].torrent без регистрации
Золото ЗОЛОТАЯ РАЗДАЧА! СКАЧАННОЕ НЕ ЗАСЧИТЫВАЕТСЯ! Золото
Дата: Зарегистрирован   [ Тип: внутренний ] Как тут cкачать?
MAGNET ссылка
MAGNET ссылка


Скачать .torrent

40 KB

Статус: проверено DHT
Скачан: торрент - 140 раз, раздача полностью - 9 раз
Размер: 7,95 GB
Оценка:  - (Голосов: 0)
Поблагодарили: 4
Поделиться ссылкой на эту раздачу с друзьями:
В контактеFacebookОдноклассникиTwitterLivejournalМой МирLiveinternet
 

 
Показать сообщения:    


Вы не можете начинать темы
Вы не можете отвечать на сообщения
Вы не можете редактировать свои сообщения
Вы не можете удалять свои сообщения
Вы не можете голосовать в опросах
Вы не можете прикреплять файлы к сообщениям
Вы можете скачивать файлы