Loading...
Error

Скачать Угнать за 60 секунд / Gone in 60 Seconds (Г.Б. Галицки) [1974, боевик, драма, криминал, BDRip] [720p] [DVO]+[Оригинал]+[Sub] торрент без регистрации

Статистика раздачи
Размер:  7,96 GB   |    Скачан:  146 раз
Сидов:  1  [  0 KB/s  ]  
 
 
 
Автор Сообщение

Marsianka

[] 

Информация о фильме
Название: Угнать за 60 секунд
Оригинальное название: Gone in 60 Seconds
Год выхода: 1974
Жанр: боевик, драма, криминал
Режиссер: Г.Б. Галицки
В ролях: Г.Б. Галицки, Мэрион Бусиа, Джерри Догидра, Джеймс Макинтайр, Джордж Коул, Рональд Галицки, Маркос Коцикос, Батч Стоктон, Фил Вудс, Дж.С. Агажанян мл.

О фильме:
Его работа кража автомобилей. Его последний контракт: угнать 40 машин за одну неделю. Но полицейские не желают мириться с ролью статистов захватывающая гонка начинается!



Страна: США
Студия: H.B. Halicki Mercantile Co.
Продолжительность: 01:37:47
Перевод: Профессиональный (двухголосый закадровый) + Оригинал

Файл
Кодек: x264
Качество: BDRip 720p (источник: Blu-ray Remux / 1080p)
Видео: 1280х692 (1.85:1), 10750 Kbps, 23.976 fps, 0.506 bit/pixel
Аудио #1: 48.0 kHz, AC3 Dolby Digital, 3/2 (L,C,R,l,r) + LFE ch, 448 kbps [Двухголосый]
Аудио #2: 48.0 kHz, AC3 Dolby Digital, 3/2 (L,C,R,l,r) + LFE ch, 448 kbps [Английский]
Субтитры: Русские
Семпл
x264 [info]: frame I:1077 Avg QP:20.01 size:133344
x264 [info]: frame P:29091 Avg QP:22.57 size: 80588
x264 [info]: frame B:110497 Avg QP:24.72 size: 48826
General
Unique ID : 195612935067549423583036142842613197958 (0x9329AE507C372902877666011B3DEC86)
Complete name : E:Gone.in.60.Seconds.1974.x264.BDRip.720p.mkv
Format : Matroska
Format version : Version 4 / Version 2
File size : 7.96 GiB
Duration : 1h 37mn
Overall bit rate : 11.6 Mbps
Encoded date : UTC 2013-08-03 17:19:24
Writing application : mkvmerge v6.3.0 ('You can't stop me!') built on Jun 28 2013 20:09:41
Writing library : libebml v1.3.0 + libmatroska v1.4.0

Video
ID : 1
Format : AVC
Format/Info : Advanced Video Codec
Format profile : High@L4.1
Format settings, CABAC : Yes
Format settings, ReFrames : 8 frames
Codec ID : V_MPEG4/ISO/AVC
Duration : 1h 37mn
Bit rate : 10.8 Mbps
Width : 1 280 pixels
Height : 692 pixels
Display aspect ratio : 1.85:1
Frame rate mode : Constant
Frame rate : 23.976 fps
Color space : YUV
Chroma subsampling : 4:2:0
Bit depth : 8 bits
Scan type : Progressive
Bits/(Pixel*Frame) : 0.506
Stream size : 7.18 GiB (90%)
Writing library : x264 core 135 r2345 f0c1c53
Encoding settings : cabac=1 / ref=8 / deblock=1:0:0 / analyse=0x3:0x133 / me=tesa / subme=11 / psy=1 / psy_rd=1.00:0.10 / mixed_ref=1 / me_range=32 / chroma_me=1 / trellis=2 / 8x8dct=1 / cqm=0 / deadzone=21,11 / fast_pskip=0 / chroma_qp_offset=-3 / threads=12 / lookahead_threads=2 / sliced_threads=0 / nr=0 / decimate=0 / interlaced=0 / bluray_compat=0 / constrained_intra=0 / bframes=8 / b_pyramid=2 / b_adapt=2 / b_bias=0 / direct=3 / weightb=1 / open_gop=0 / weightp=2 / keyint=230 / keyint_min=23 / scenecut=40 / intra_refresh=0 / rc=2pass / mbtree=0 / bitrate=10750 / ratetol=1.0 / qcomp=0.60 / qpmin=0 / qpmax=69 / qpstep=4 / cplxblur=20.0 / qblur=0.5 / ip_ratio=1.40 / pb_ratio=1.30 / aq=1:1.00
Language : English
Default : Yes
Forced : No

Audio #1
ID : 2
Format : AC-3
Format/Info : Audio Coding 3
Mode extension : CM (complete main)
Format settings, Endianness : Big
Codec ID : A_AC3
Duration : 1h 37mn
Bit rate mode : Constant
Bit rate : 448 Kbps
Channel(s) : 6 channels
Channel positions : Front: L C R, Side: L R, LFE
Sampling rate : 48.0 KHz
Bit depth : 16 bits
Compression mode : Lossy
Stream size : 313 MiB (4%)
Title : AC3 5.1ch 448 kbps - Двухголосый
Language : Russian
Default : Yes
Forced : No

Audio #2
ID : 3
Format : AC-3
Format/Info : Audio Coding 3
Mode extension : CM (complete main)
Format settings, Endianness : Big
Codec ID : A_AC3
Duration : 1h 37mn
Bit rate mode : Constant
Bit rate : 448 Kbps
Channel(s) : 6 channels
Channel positions : Front: L C R, Side: L R, LFE
Sampling rate : 48.0 KHz
Bit depth : 16 bits
Compression mode : Lossy
Stream size : 313 MiB (4%)
Title : AC3 5.1ch 448 kbps - Английский
Language : English
Default : No
Forced : No

Text
ID : 4
Format : UTF-8
Codec ID : S_TEXT/UTF8
Codec ID/Info : UTF-8 Plain Text
Title : Русские
Language : Russian
Default : No
Forced : No

Menu
00:00:00.000 : en:00:00:00.000
00:08:33.430 : en:00:08:33.430
00:14:43.341 : en:00:14:43.341
00:23:50.929 : en:00:23:50.929
00:30:03.969 : en:00:30:03.969
00:44:54.942 : en:00:44:54.942
00:55:23.737 : en:00:55:23.737
01:05:26.131 : en:01:05:26.131
01:12:43.109 : en:01:12:43.109
01:20:26.989 : en:01:20:26.989
01:29:03.838 : en:01:29:03.838
01:35:22.425 : en:01:35:22.425



Скачать Угнать.за.60.секунд.Gone.in.60.Seconds.(Г.Б.Галицки).[1974.боевик.драма.криминал.BDRip].[720p].[DVO]+[Оригинал]+[Sub].torrent без регистрации
Золото ЗОЛОТАЯ РАЗДАЧА! СКАЧАННОЕ НЕ ЗАСЧИТЫВАЕТСЯ! Золото
Дата: Зарегистрирован   [ Тип: внутренний ] Как тут cкачать?
MAGNET ссылка
MAGNET ссылка


Скачать .torrent

20 KB

Статус: проверено DHT
Скачан: торрент - 146 раз, раздача полностью - 8 раз
Размер: 7,96 GB
Оценка:  5 (Голосов: 1)
Поблагодарили: 2
Поделиться ссылкой на эту раздачу с друзьями:
В контактеFacebookОдноклассникиTwitterLivejournalМой МирLiveinternet
 

 
Показать сообщения:    


Вы не можете начинать темы
Вы не можете отвечать на сообщения
Вы не можете редактировать свои сообщения
Вы не можете удалять свои сообщения
Вы не можете голосовать в опросах
Вы не можете прикреплять файлы к сообщениям
Вы можете скачивать файлы