Loading...
Error

Скачать Правосудие Декстера / Dexter (сезоны 01-08) (Джон Дал, Стив Шилл, Кит Гордон) [2006-2013 г., драма, детектив, криминал, триллер, HDRip] [MVO (Fox Crime)]+[Eng] торрент без регистрации

Статистика раздачи
Размер:  73,43 GB   |    Скачан:  828 раз
Сидов:  5  [  0 KB/s  ]   Личеров:  13  [  0 KB/s  ]  

 
 
 
Автор Сообщение

МихаНЕзатор

[] 

Декстер / Dexter


Год выпуска: 2006-2013
Страна: США
Жанр: триллер, драма, криминал, детектив
Продолжительность: 1 серия ~ 00:54:00
Перевод: Профессиональный (многоголосый, закадровый) [Fox Crime]
Режиссёр: Джон Дал, Стив Шилл, Кит Гордон

В ролях: Майкл С. Холл, Дженнифер Карпентер, Дэвид Зайас, Джеймс Римар, К.С. Ли, Лорен Луна Велес, Десмонд Хэррингтон, Джули Бенц, Кристина Робинсон, Джеффри Пирсон
__________________________________________
Описание: Я — Декстер. Декстер Морган. Я работаю судмедэкспертом в полиции Майами. Я не понимаю любви, мне безразличен секс, и у меня нет чувств. А еще я серийный убийца.
Мой отец был полицейским и прекрасно обучил меня прятать улики. Обычным гражданам не стоит меня бояться, я убиваю только преступников, подонков, до которых почему-либо не смогла или не захотела добраться полиция. Я убиваю их, аккуратно распиливаю на части и избавляюсь от трупов. Убийство для меня — творческий акт, искусство.
_______________________________________



Качество видео: HDRip
Формат видео: MKV (x264)
Видео: AVC, 720x400, 23.976 fps, 1400 kbps
Аудио #1 Rus: (Fox Crime): 48.0 kHz, AC3 , 2ch, ~192 kbps
Аудио #2 Eng: 48.0 kHz, AC3 , 2ch, ~448 kbps
----------------
Примечание : добавте трекер udp://tracker.coppersurfer.tk:6969
в вашем торрент-клиенте
----------------------------------
Инфо.про противников Декса
Сезон 1 - Ледяной убийца
Сезон 2 - Сержант Доакс
Сезон 3 - Мигель Прадо и Кожаный убийца
Сезон 4 - Серийный убийца "Троица"
Сезон 5 - Бонни и Клайд плюс Бойд Фаулер
Сезон 6 - Тревис Маршал "Сектант"
Сезон 7 - Мария Ла-Гуерта и Исак Сирко
Сезон 8 - Нейрохирург и Дебра Морган


АНОНСЫ ПОПУЛЯРНЫХ РАЗДАЧ


Торрент обновлён, собраны все восемь сезонов!

General
Полное имя : Dexter.s01e01.Dexter.mkv
Формат : Matroska
Версия формата : Version 4 / Version 2
Размер файла : 767 Мбайт
Продолжительность : 53 м.
Общий поток : 2021 Кбит/сек
Название фильма : Dexter.s01e01.Dexter (BDRip-AVC) -B@ZILI0-
Дата кодирования : UTC 2013-07-24 14:50:45
Программа кодирования : mkvmerge v6.3.0 ('You can't stop me!') built on Jun 28 2013 20:09:41
Библиотека кодирования : libebml v1.3.0 + libmatroska v1.4.0
Attachment : Yes / Yes

Видео
Идентификатор : 1
Формат : AVC
Формат/Информация : Advanced Video Codec
Профиль формата : High@L3.1
Параметр CABAC формата : Да
Параметр ReFrames формата : 8 кадров
Идентификатор кодека : V_MPEG4/ISO/AVC
Продолжительность : 53 м.
Битрейт : 1400 Кбит/сек
Ширина : 720 пикселей
Высота : 400 пикселей
Соотношение сторон : 16:9
Режим частоты кадров : Постоянный
Частота кадров : 23,976 кадра/сек
Цветовое пространство : YUV
Субдискретизация насыщенности : 4:2:0
Битовая глубина : 8 бит
Тип развёртки : Прогрессивная
Бит/(Пиксели*Кадры) : 0.199
Размер потока : 509 Мбайт (66%)
Заголовок : Dexter.s01e01.Dexter (BDRip-AVC) -B@ZILI0-
Библиотека кодирования : x264 core 122 r2184 5c85e0a
Настройки программы : cabac=1 / ref=8 / deblock=1:-1:-1 / analyse=0x3:0x133 / me=umh / subme=11 / psy=1 / psy_rd=1.00:0.15 / mixed_ref=1 / me_range=32 / chroma_me=1 / trellis=2 / 8x8dct=1 / cqm=0 / deadzone=21,11 / fast_pskip=0 / chroma_qp_offset=-3 / threads=6 / sliced_threads=0 / nr=0 / decimate=1 / interlaced=0 / bluray_compat=0 / constrained_intra=0 / bframes=16 / b_pyramid=2 / b_adapt=2 / b_bias=0 / direct=3 / weightb=1 / open_gop=0 / weightp=2 / keyint=240 / keyint_min=23 / scenecut=40 / intra_refresh=0 / rc=2pass / mbtree=0 / bitrate=1377 / ratetol=1.0 / qcomp=0.60 / qpmin=0 / qpmax=69 / qpstep=4 / cplxblur=20.0 / qblur=0.5 / ip_ratio=1.40 / pb_ratio=1.30 / aq=1:1.00
Язык : English
Default : Да
Forced : Нет

Аудио #1
Идентификатор : 2
Формат : AC-3
Формат/Информация : Audio Coding 3
Расширение режима : CM (complete main)
Параметр Endianness формата : Big
Идентификатор кодека : A_AC3
Продолжительность : 53 м.
Вид битрейта : Постоянный
Битрейт : 192 Кбит/сек
Каналы : 2 канала
Расположение каналов : Front: L R
Частота : 48,0 КГц
Битовая глубина : 16 бит
Метод сжатия : С потерями
Размер потока : 72,9 Мбайт (10%)
Заголовок : FoxCrime AC3 2.0 192 Kbps
Язык : Russian
Default : Да
Forced : Нет

Аудио #2
Идентификатор : 3
Формат : AC-3
Формат/Информация : Audio Coding 3
Расширение режима : CM (complete main)
Параметр Endianness формата : Big
Идентификатор кодека : A_AC3
Продолжительность : 53 м.
Вид битрейта : Постоянный
Битрейт : 448 Кбит/сек
Каналы : 6 каналов
Расположение каналов : Front: L C R, Side: L R, LFE
Частота : 48,0 КГц
Битовая глубина : 16 бит
Метод сжатия : С потерями
Размер потока : 170 Мбайт (22%)
Заголовок : Original AC3 5.1 448 Kbps
Язык : English
Default : Нет
Forced : Нет

Текст #1
Идентификатор : 4
Формат : UTF-8
Идентификатор кодека : S_TEXT/UTF8
Идентификатор кодека/Информация : UTF-8 Plain Text
Язык : Russian
Default : Нет
Forced : Нет

Текст #2
Идентификатор : 5
Формат : UTF-8
Идентификатор кодека : S_TEXT/UTF8
Идентификатор кодека/Информация : UTF-8 Plain Text
Язык : English
Default : Нет
Forced : Нет

---------------------

________________




Скачать Правосудие.Декстера.Dexter.(сезоны.01-08).(Джон.Дал.Стив.Шилл.Кит.Гордон).[2006-2013.г.драма.детектив.криминал.триллер.HDRip].[MVO.(Fox.Crime)]+[Eng].torrent без регистрации
Золото ЗОЛОТАЯ РАЗДАЧА! СКАЧАННОЕ НЕ ЗАСЧИТЫВАЕТСЯ! Золото
Дата: Зарегистрирован   [ Тип: внешний ] Как тут cкачать?
MAGNET ссылка
MAGNET ссылка


Скачать .torrent

193 KB

Статус: проверено DHT
Скачан: торрент - 828 раз, раздача полностью - 5 раз
Размер: 73,43 GB
Оценка:  4,7 (Голосов: 3)
Поблагодарили: 5
Поделиться ссылкой на эту раздачу с друзьями:
В контактеFacebookОдноклассникиTwitterLivejournalМой МирLiveinternet
 

 
Показать сообщения:    


Вы не можете начинать темы
Вы не можете отвечать на сообщения
Вы не можете редактировать свои сообщения
Вы не можете удалять свои сообщения
Вы не можете голосовать в опросах
Вы не можете прикреплять файлы к сообщениям
Вы можете скачивать файлы