Loading...
Error

Скачать Капли крови на цветущем вереске (1 из 6) (Дмитрий Иосифов) [2011, военная драма, DVB] торрент без регистрации

Статистика раздачи
Размер:  976 MB   |    Скачан:  426 раз
Сидов:  1  [  0 KB/s  ]  
 
 
 
Автор Сообщение

МихаНЕзатор

[] 

Капли крови на цветущем вереске


Год выпуска: 2011
Производство: кинокомпания «Дирекция кино» Первый канал
Жанр: Военная драма
Продолжительность: 0:50
Субтитры: Украинские неотключаемые

Режиссёр: Дмитрий Иосифов

В ролях: Алексей Бардуков, Юлия Пересильд, Вера Кавалерова, Михаил Евланов, Игорь Скляр, Сергей Колтаков, Александр Воробьёв, Сергей Власов, Мария Куликова, Петр Томашевский, Анна Полупанова, Максим Житник, Алексей Морозов и др.



Описание: События фильма происходят в белорусской деревне в 1944 году, время, когда наша земля была освобождена от оккупантов.Приход советских войск в Белоруссию был воспринят неоднозначно. Многие радовались освобождению от фашистов, часть населения, как и раньше, была против советского режима. Какая судьба ожидает выживших в страшном огне войны? Сотни деревень сожжены дотла, города стоят в сплошных руинах. Русский сериал "Капли крови на цветущем вереске" очень символичен и затрагивает множество спорных тем. Не все захотят услышать правду, но такие найдутся обязательно!

Доп. информация:

Сэмпл

Качество: DVB
Формат: MPEG
Видео кодек: MPEG2
Аудио кодек: MPEG1 Layer 2
Видео: MPEG2 Video 704x576 (4:3) 25.00fps 2462 Kbps 0.243bit/pixel
Аудио: MPEG Audio 48000Hz stereo 192 Кбит/с

Раздача ведётся путём добавления новых серий; при каждом добавлении создаётся новый торрент. Чтобы начать докачку новой серии, пользователям необходимо сделать следующее:
(1) остановить скачивание,
(2) удалить старый торрент у себя из клиента (старые серии удалять не надо),
(3) скачать новый торрент и запустить его у себя в клиенте вместо старого, при этом указать клиенту путь в старую папку куда и должно происходить скачивание новых серий.

Ваш клиент при этом должен произвести хеширование (проверку) старой папки (если не производит сам - помогите ему сделать это), и будет докачивать только те серии которых у вас ещё нет. Старые серии при этом не удаляются, а продолжают раздаваться!

Eсли вы уже удалили старые серии, то предотвратить повторную закачку старых серий можно, отжав галочку в соответствующих местах при запуске нового торрента. По возможности, желательно не удалять старые серии как можно дольше чтобы релизёр не столько продолжал раздавать старые серии, а смог сконцентрироваться на новых.

Общее
Полное имя : D:\CloneDVDTemp\Капли крови на цветущем вереске\01 серия.mpg
Формат : MPEG-PS
Размер файла : 976 Мбайт
Продолжительность : 50 м.
Общий поток : 2708 Кбит/сек

Видео
Идентификатор : 224 (0xE0)
Формат : MPEG Video
Версия формата : Version 2
Профиль формата : Main@Main
Параметр BVOP формата : Да
Параметр матрицы формата : По умолчанию
Параметры GOP формата : M=1, N=28
Продолжительность : 50 м.
Вид битрейта : Переменный
Битрейт : 2462 Кбит/сек
Номинальный битрейт : 15,0 Мбит/сек
Ширина : 704 пикс.
Высота : 576 пикс.
Соотношение сторон : 4:3
Частота кадров : 25,000 кадр/сек
Стандарт вещания : PAL
Цветовое пространство : YUV
Подвыборка цветности : 4:2:0
Битовая глубина : 8 бит
Тип развёртки : Чересстрочная
Порядок развёртки : Верхнее поле первое
Метод сжатия : С потерями
Бит/(Пиксели*Кадры) : 0.243
Размер потока : 887 Мбайт (91%)

Аудио
Идентификатор : 192 (0xC0)
Формат : MPEG Audio
Версия формата : Version 1
Профиль формата : Layer 2
Продолжительность : 50 м.
Вид битрейта : Постоянный
Битрейт : 192 Кбит/сек
Канал(ы) : 2 канала(ов)
Частота : 48,0 КГц
Метод сжатия : С потерями
Размер потока : 69,2 Мбайт (7%)



Скачать Капли.крови.на.цветущем.вереске.(1.из.6).(Дмитрий.Иосифов).[2011.военная.драма.DVB].torrent без регистрации
Золото ЗОЛОТАЯ РАЗДАЧА! СКАЧАННОЕ НЕ ЗАСЧИТЫВАЕТСЯ! Золото
Дата: Зарегистрирован   [ Тип: внутренний ] Как тут cкачать?
MAGNET ссылка
MAGNET ссылка


Скачать .torrent

20 KB

Статус: проверено DHT
Скачан: торрент - 426 раз, раздача полностью - 73 раз
Размер: 976 MB
Оценка:  5 (Голосов: 1)
Поблагодарили: 1
Поделиться ссылкой на эту раздачу с друзьями:
В контактеFacebookОдноклассникиTwitterLivejournalМой МирLiveinternet
 

 
Показать сообщения:    


Вы не можете начинать темы
Вы не можете отвечать на сообщения
Вы не можете редактировать свои сообщения
Вы не можете удалять свои сообщения
Вы не можете голосовать в опросах
Вы не можете прикреплять файлы к сообщениям
Вы можете скачивать файлы