Loading...
Error

Скачать Помни / Memento (Кристофер Нолан /Christopher Nolan) [2000, Триллер, Драма, Криминал, Детектив, BDRip] [720p] [HQ-ViDEO] торрент без регистрации

Статистика раздачи
Размер:  4,37 GB   |    Скачан:  156 раз
Сидов:  1  [  0 KB/s  ]  
 
 
 
Автор Сообщение

Marsianka

[] 

Помни / Memento (2000) BDRip [720p]

Релиз от HQ-ViDEO


Жанр: Триллер, Драма, Криминал, Детектив
Год: 2000
Студия: Newmarket Capital Group
Режиссер: Кристофер Нолан /Christopher Nolan/

В ролях: Гай Пирс /Guy Pearce/, Кэрри-Энн Мосс /Carrie-Anne Moss/, Джо Пантольяно /Joe Pantoliano/, Марк Бун Джуниор /Mark Boone Junior/, Расс Фега /Russ Fega/, Джоржа Фокс /Jorja Fox/, Стивен Тоболовски /Stephen Tobolowsky/, Харриет Сэнсом Харрис /Harriet Sansom Harris/, Томас Леннон /Thomas Lennon/, Каллум Кит Ренни /Callum Keith Rennie

Описание: Леонард Шелби изысканно и дорого одет, ездит на новеньком «Ягуаре», но проживает в дешевых мотелях. Его цель в жизни найти убийцу жены.

Его проблема редкая форма амнезии, потеря короткой памяти, помня все до убийства, он не помнит, что было пятнадцать минут назад. Его друзья Тедди и Натали, да и друзья ли они ему. Его спутники фотоаппарат «Полароид» и татуировки на теле. Главный вопрос почему наказанных больше, чем виноватых?...

********** Memento (2000) ***********

Release Date: 28.02.2011

Release Info:

Author ........: GYN

Runtime .......: 01:53:26 min
Video Format ..: MKV, H.264 codec
Video Bitrate .: 4 510 kbps
Bits per Pixel : 0.270 bit/pixel
Resolution ....: 1 280 x 544
Aspect Ratio ..: 2.35:1
Framerate .....: 23.976 fps

Audio First....: Russian AC3 Dolby Digital; 448.00 kbps; 5.1 Ch; 48 kHz
Audio Second...: English AC3 Dolby Digital; 448.00 kbps; 5.1 Ch; 48 kHz

Subtitle.......: Russian, English.

File Size .....: 4.37 GB
Source.........: Blu-ray Disc
General
Complete name : Pomni.2000.DUAL.BDRip.720p.h264.AC3.-HQ-ViDEO.mkv
Format : Matroska
File size : 4.37 GiB
Duration : 1h 53mn
Overall bit rate : 5 516 Kbps
Movie name : Memento (2000)
Encoded date : UTC 2011-02-28 09:18:41
Writing application : mkvmerge v3.3.0 ('Language') built on Mar 24 2010 14:59:24
Writing library : libebml v0.8.0 + libmatroska v0.9.0

Video
ID : 1
Format : AVC
Format/Info : Advanced Video Codec
Format profile : High@L4.1
Format settings, CABAC : Yes
Format settings, ReFrames : 6 frames
Codec ID : V_MPEG4/ISO/AVC
Duration : 1h 53mn
Bit rate mode : Variable
Bit rate : 4 510 Kbps
Width : 1 280 pixels
Height : 544 pixels
Display aspect ratio : 2.35:1
Frame rate : 23.976 fps
Color space : YUV
Chroma subsampling : 4:2:0
Bit depth : 8 bits
Scan type : Progressive
Bits/(Pixel*Frame) : 0.270
Stream size : 3.57 GiB (82%)
Title : Encoded by GYN

Audio #1
ID : 2
Format : AC-3
Format/Info : Audio Coding 3
Mode extension : CM (complete main)
Codec ID : A_AC3
Duration : 1h 53mn
Bit rate mode : Constant
Bit rate : 448 Kbps
Channel(s) : 6 channels
Channel positions : Front: L C R, Side: L R, LFE
Sampling rate : 48.0 KHz
Bit depth : 16 bits
Compression mode : Lossy
Stream size : 364 MiB (8%)
Title : MVO
Language : Russian

Audio #2
ID : 3
Format : AC-3
Format/Info : Audio Coding 3
Mode extension : CM (complete main)
Codec ID : A_AC3
Duration : 1h 53mn
Bit rate mode : Constant
Bit rate : 448 Kbps
Channel(s) : 6 channels
Channel positions : Front: L C R, Side: L R, LFE
Sampling rate : 48.0 KHz
Bit depth : 16 bits
Compression mode : Lossy
Stream size : 364 MiB (8%)
Title : Original
Language : English

Text #1
ID : 4
Format : UTF-8
Codec ID : S_TEXT/UTF8
Codec ID/Info : UTF-8 Plain Text
Language : Russian

Text #2
ID : 5
Format : UTF-8
Codec ID : S_TEXT/UTF8
Codec ID/Info : UTF-8 Plain Text
Language : English
Язык: Русский профессиональный перевод + Английская дорожка.

Субтитры: Русские, Английские. Релиз:
Автор рипа: GYN

ПРИЯТНОГО ПРОСМОТРА!



Скачать Помни.Memento.(Кристофер.Нолан.Christopher.Nolan).[2000.Триллер.Драма.Криминал.Детектив.BDRip].[720p].[HQ-ViDEO].torrent без регистрации
Золото ЗОЛОТАЯ РАЗДАЧА! СКАЧАННОЕ НЕ ЗАСЧИТЫВАЕТСЯ! Золото
Дата: Зарегистрирован   [ Тип: внутренний ] Как тут cкачать?
MAGNET ссылка
MAGNET ссылка


Скачать .torrent

23 KB

Статус: проверено DHT
Скачан: торрент - 156 раз, раздача полностью - 56 раз
Размер: 4,37 GB
Оценка:  5 (Голосов: 2)
Поблагодарили: 3
Поделиться ссылкой на эту раздачу с друзьями:
В контактеFacebookОдноклассникиTwitterLivejournalМой МирLiveinternet
 

 
Показать сообщения:    


Вы не можете начинать темы
Вы не можете отвечать на сообщения
Вы не можете редактировать свои сообщения
Вы не можете удалять свои сообщения
Вы не можете голосовать в опросах
Вы не можете прикреплять файлы к сообщениям
Вы можете скачивать файлы